Today is a free download without charge Download

OTUS | DevOps практики и инструменты (2019) PCRec [H.264]

Reply to topic
 
Author
Message

Omen ®

Longevity: 7 years 10 months

Posts: 181087

Торрент-статистика

Post 15-Dec-2012 00:56

[Quote]

OTUS | DevOps практики и инструменты (2019) PCRec [H.264] - Автор (режиссер): OTUS
Производство: Александр Титов
Жанр: Программирование, DevOps
Описание:
DevOps решает задачу взаимодействия инженеров между собой с целью помочь им быстрее создавать и обновлять сервисы и приложения.
Основная “фишка” программы - постоянный переход от абстрактного в конкретное: сначала дается карта конкретных практик, далее отдельные подпрактики с моментальным погружением в инструмент. Это дает эффект самостоятельного изучения, при этом карта практик уже сформирована для специалиста, и у него нет шанса попасть в колею прошлого опыта.
Продолжительность: 44:09:44
Качество видео: PCRec
Видео: AVC/H.264, 1280x740-2560x1440, ~63-2499 Kbps
Аудио: AAC, 1 ch, 50-317 Kbps

MediaInfo:

Общее
Полное имя : .\20. Введение в мониторинг. Модели и принципы работы систем мониторинга\20.mp4
Формат : MPEG-4
Профиль формата : Base Media / Version 2
Идентификатор кодека : mp42 (mp41/mp42/isom)
Размер файла : 95,6 Мбайт
Продолжительность : 1 ч. 21 м.
Режим общего битрейта : Переменный
Общий поток : 163 Кбит/сек
Дата кодирования : UTC 2019-03-06 07:44:36
Дата пометки : UTC 2019-03-06 07:44:43
Видео
Идентификатор : 2
Формат : AVC
Формат/Информация : Advanced Video Codec
Профиль формата : [email protected]
Настройки формата : CABAC / 11 Ref Frames
Параметр CABAC формата : Да
Параметр RefFrames формата : 11 кадров
Идентификатор кодека : avc1
Идентификатор кодека/Информация : Advanced Video Coding
Продолжительность : 1 ч. 21 м.
Продолжительность оригинала : 1 ч. 21 м.
Битрейт : 107 Кбит/сек
Ширина : 1280 пикселей
Высота : 740 пикселей
Соотношение сторон : 1,730
Режим частоты кадров : Постоянный
Частота кадров : 25,000 кадров/сек
Цветовое пространство : YUV
Субдискретизация насыщенности : 4:2:0
Битовая глубина : 8 бит
Тип развёртки : Прогрессивная
Бит/(Пиксели*Кадры) : 0.005
Размер потока : 62,9 Мбайт (66%)
Размер потока оригинала : 62,9 Мбайт (66%)
Заголовок : Core Media Video
Дата кодирования : UTC 2019-03-06 07:44:36
Дата пометки : UTC 2019-03-06 07:44:43
Codec configuration box : avcC
Аудио
Идентификатор : 1
Формат : AAC LC
Формат/Информация : Advanced Audio Codec Low Complexity
Идентификатор кодека : mp4a-40-2
Продолжительность : 1 ч. 21 м.
Продолжительность оригинала : 1 ч. 21 м.
Вид битрейта : Переменный
Битрейт : 53,3 Кбит/сек
Максимальный битрейт : 122 Кбит/сек
Каналы : 1 канал
ChannelLayout : C
Частота : 32,0 КГц
Частота кадров : 31,250 кадров/сек (1024 SPF)
Метод сжатия : С потерями
Размер потока : 31,2 Мбайт (33%)
Размер потока оригинала : 31,2 Мбайт (33%)
Заголовок : Core Media Audio
Дата кодирования : UTC 2019-03-06 07:44:36
Дата пометки : UTC 2019-03-06 07:44:43
Общее
Полное имя : .\14. Технология контейнеризации. Введение в Docker\14.mp4
Формат : MPEG-4
Профиль формата : Base Media / Version 2
Идентификатор кодека : mp42 (isom/mp42)
Размер файла : 66,7 Мбайт
Продолжительность : 1 ч. 4 м.
Режим общего битрейта : Переменный
Общий поток : 144 Кбит/сек
Дата кодирования : UTC 2019-04-25 18:12:16
Дата пометки : UTC 2019-04-25 18:12:16
Видео
Идентификатор : 2
Формат : AVC
Формат/Информация : Advanced Video Codec
Профиль формата : [email protected]
Настройки формата : CABAC / 11 Ref Frames
Параметр CABAC формата : Да
Параметр RefFrames формата : 11 кадров
Идентификатор кодека : avc1
Идентификатор кодека/Информация : Advanced Video Coding
Продолжительность : 1 ч. 4 м.
Битрейт : 88,4 Кбит/сек
Ширина : 1440 пикселей
Высота : 900 пикселей
Соотношение сторон : 16:10
Режим частоты кадров : Постоянный
Частота кадров : 25,000 кадров/сек
Цветовое пространство : YUV
Субдискретизация насыщенности : 4:2:0
Битовая глубина : 8 бит
Тип развёртки : Прогрессивная
Бит/(Пиксели*Кадры) : 0.003
Размер потока : 40,9 Мбайт (61%)
Дата кодирования : UTC 2019-04-25 18:12:16
Дата пометки : UTC 2019-04-25 18:12:16
Codec configuration box : avcC
Аудио
Идентификатор : 1
Формат : AAC LC
Формат/Информация : Advanced Audio Codec Low Complexity
Идентификатор кодека : mp4a-40-2
Продолжительность : 1 ч. 4 м.
Вид битрейта : Переменный
Битрейт : 53,4 Кбит/сек
Максимальный битрейт : 119 Кбит/сек
Каналы : 1 канал
ChannelLayout : C
Частота : 32,0 КГц
Частота кадров : 31,250 кадров/сек (1024 SPF)
Метод сжатия : С потерями
Размер потока : 24,7 Мбайт (37%)
Заголовок : AAC audio
Дата кодирования : UTC 2019-04-25 18:12:16
Дата пометки : UTC 2019-04-25 18:12:16
Общее
Полное имя : .\06. Основные сервисы Google Cloud Platform (GCP)\06.mp4
Формат : MPEG-4
Профиль формата : Base Media / Version 2
Идентификатор кодека : mp42 (isom/mp42)
Размер файла : 331 Мбайт
Продолжительность : 1 ч. 41 м.
Режим общего битрейта : Переменный
Общий поток : 454 Кбит/сек
Дата кодирования : UTC 2019-03-21 18:50:39
Дата пометки : UTC 2019-03-21 18:50:39
Видео
Идентификатор : 2
Формат : AVC
Формат/Информация : Advanced Video Codec
Профиль формата : [email protected]
Настройки формата : CABAC / 11 Ref Frames
Параметр CABAC формата : Да
Параметр RefFrames формата : 11 кадров
Идентификатор кодека : avc1
Идентификатор кодека/Информация : Advanced Video Coding
Продолжительность : 1 ч. 41 м.
Битрейт : 399 Кбит/сек
Ширина : 1920 пикселей
Высота : 1080 пикселей
Соотношение сторон : 16:9
Режим частоты кадров : Постоянный
Частота кадров : 25,000 кадров/сек
Цветовое пространство : YUV
Субдискретизация насыщенности : 4:2:0
Битовая глубина : 8 бит
Тип развёртки : Прогрессивная
Бит/(Пиксели*Кадры) : 0.008
Размер потока : 291 Мбайт (88%)
Дата кодирования : UTC 2019-03-21 18:50:39
Дата пометки : UTC 2019-03-21 18:50:39
Codec configuration box : avcC
Аудио
Идентификатор : 1
Формат : AAC LC
Формат/Информация : Advanced Audio Codec Low Complexity
Идентификатор кодека : mp4a-40-2
Продолжительность : 1 ч. 41 м.
Вид битрейта : Переменный
Битрейт : 53,2 Кбит/сек
Максимальный битрейт : 121 Кбит/сек
Каналы : 1 канал
ChannelLayout : C
Частота : 32,0 КГц
Частота кадров : 31,250 кадров/сек (1024 SPF)
Метод сжатия : С потерями
Размер потока : 38,8 Мбайт (12%)
Заголовок : AAC audio
Дата кодирования : UTC 2019-03-21 18:50:39
Дата пометки : UTC 2019-03-21 18:50:39
Общее
Полное имя : .\18. Технология непрерывной поставки ПО\18.mp4
Формат : MPEG-4
Профиль формата : Base Media / Version 2
Идентификатор кодека : mp42 (isom/mp42)
Размер файла : 58,3 Мбайт
Продолжительность : 1 ч. 3 м.
Режим общего битрейта : Переменный
Общий поток : 128 Кбит/сек
Дата кодирования : UTC 2019-05-16 18:28:30
Дата пометки : UTC 2019-05-16 18:28:30
Видео
Идентификатор : 2
Формат : AVC
Формат/Информация : Advanced Video Codec
Профиль формата : [url=mailto:[email protected]][email protected][/url]
Настройки формата : CABAC / 11 Ref Frames
Параметр CABAC формата : Да
Параметр RefFrames формата : 11 кадров
Идентификатор кодека : avc1
Идентификатор кодека/Информация : Advanced Video Coding
Продолжительность : 1 ч. 3 м.
Битрейт : 72,4 Кбит/сек
Ширина : 2560 пикселей
Высота : 1440 пикселей
Соотношение сторон : 16:9
Режим частоты кадров : Постоянный
Частота кадров : 25,000 кадров/сек
Цветовое пространство : YUV
Субдискретизация насыщенности : 4:2:0
Битовая глубина : 8 бит
Тип развёртки : Прогрессивная
Бит/(Пиксели*Кадры) : 0.001
Размер потока : 33,1 Мбайт (57%)
Дата кодирования : UTC 2019-05-16 18:28:30
Дата пометки : UTC 2019-05-16 18:28:30
Codec configuration box : avcC
Аудио
Идентификатор : 1
Формат : AAC LC
Формат/Информация : Advanced Audio Codec Low Complexity
Идентификатор кодека : mp4a-40-2
Продолжительность : 1 ч. 3 м.
Вид битрейта : Переменный
Битрейт : 53,0 Кбит/сек
Максимальный битрейт : 125 Кбит/сек
Каналы : 1 канал
ChannelLayout : C
Частота : 32,0 КГц
Частота кадров : 31,250 кадров/сек (1024 SPF)
Метод сжатия : С потерями
Размер потока : 24,2 Мбайт (42%)
Заголовок : AAC audio
Дата кодирования : UTC 2019-05-16 18:28:30
Дата пометки : UTC 2019-05-16 18:28:30
Скриншоты:
       
Other forum [Profile] [PM]
Display posts from previous:    
Reply to topic

The time now is: Today 07:27

All times are GMT + 3 Hours



You cannot post new topics in this forum
You cannot reply to topics in this forum
You cannot edit your posts in this forum
You cannot delete your posts in this forum
You cannot vote in polls in this forum
You cannot attach files in this forum
You cannot download files in this forum