Today is a free download without charge Download

Радмило М. Лукич - Продажа услуг (авторский семинар) [2003, видеозапись семинара, VHSRip, RUS]

Reply to topic
 
Author
Message

Omen ®

Longevity: 7 years 10 months

Posts: 181087

Торрент-статистика

Post 15-Dec-2012 00:56

[Quote]

Радмило М. Лукич - Продажа услуг (авторский семинар)
Страна: Россия
Тематика: продажа услуг
Тип раздаваемого материала: видеозапись семинара
Продолжительность: 10:22:14
Год выпуска: 2003
Язык: Русский
Перевод: Не требуется
Описание:
Отличия: одним файлом, размер файла 1,82 Гб, качество почти такое же, отсутствует рассинхрон видео и аудио (у меня он есть на всех плейерах и компьютерах), немного обрезаны (несколько секунд) окончания "оригинальных" файлов раздачи
Взято с просторов Интернет.
Информация о файле:
Полное имя : RADMILO_M._LUKICH_-_Prodazha_uslug_[H.264]_(10chas.22min.14sec.)
Формат : AVI
Формат/Информация : Audio Video Interleave
Размер файла : 1,82 Гбайт
Продолжительность : 10 ч.
Общий поток : 418 Кбит/сек
Видео
Идентификатор : 0
Формат : AVC
Формат/Информация : Advanced Video Codec
Профиль формата : [email protected]
Параметр CABAC формата : Да
Параметр ReFrames формата : 1 кадр
Идентификатор кодека : H264
Продолжительность : 10 ч.
Битрейт : 280 Кбит/сек
Ширина : 352 пикселя
Высота : 288 пикселей
Соотношение сторон : 1,222
Частота кадров : 25,052 кадров/сек
Частота кадров в оригинале : 25,053 кадров/сек
Стандарт вещания : PAL
Цветовое пространство : YUV
Субдискретизация насыщенности : 4:2:0
Битовая глубина : 8 бит
Тип развёртки : Прогрессивная
Бит/(Пиксели*Кадры) : 0.110
Размер потока : 1,22 Гбайт (67%)
Библиотека кодирования : x264 core 57 svn-721bm
Настройки программы : cabac=1 / ref=1 / deblock=1:0:0 / analyse=0x3:0x13 / me=umh / subme=6 / brdo=0 / mixed_ref=0 / me_range=16 / chroma_me=1 / trellis=1 / 8x8dct=1 / cqm=0 / deadzone=21,11 / chroma_qp_offset=0 / threads=1 / nr=0 / decimate=1 / mbaff=0 / bframes=0 / keyint=250 / keyint_min=25 / scenecut=40 / rc=crf / crf=26.0 / rceq='blurCplx^(1-qComp)' / qcomp=0.60 / qpmin=10 / qpmax=51 / qpstep=4 / ip_ratio=1.40
Аудио
Идентификатор : 1
Формат : MPEG Audio
Версия формата : Version 1
Профиль формата : Layer 3
Идентификатор кодека : 55
Идентификатор кодека/Подсказка : MP3
Продолжительность : 10 ч.
Вид битрейта : Постоянный
Битрейт : 128 Кбит/сек
Каналы : 2 канала
Частота : 44,1 КГц
Метод сжатия : С потерями
Размер потока : 570 Мбайт (31%)
Выравнивание : Разделение по промежуткам
Продолжительность промежутка : 40 мс. (1,00 видеокадр)
Библиотека кодирования : LAMELAME_MAJOR_VERSI
Качество: VHSRip
Формат: AVI
Видео кодек: H.264
Аудио кодек: MP3

Скриншоты


Other forum [Profile] [PM]
Display posts from previous:    
Reply to topic

The time now is: Today 16:39

All times are GMT + 3 Hours



You cannot post new topics in this forum
You cannot reply to topics in this forum
You cannot edit your posts in this forum
You cannot delete your posts in this forum
You cannot vote in polls in this forum
You cannot attach files in this forum
You cannot download files in this forum