Today is a free download without charge Download

JavaBegin | Spring (2014-2017) PCRec [H.264]

Reply to topic
 
Author
Message

Omen ®

Longevity: 7 years 10 months

Posts: 181087

Торрент-статистика

Post 15-Dec-2012 00:56

[Quote]

JavaBegin | Spring (2014-2017) - Автор (режиссер): JavaBegin
Жанр: Программирование, Java, Spring
Описание:
Использование самого популярного фреймворка Java на практике: на примерах desktop и веб приложений, в связке с Hibernate, Gradle, Maven.
Продолжительность: 38:06:33
Качество видео: PCRec
Видео: AVC/H.264, 640x360-1832x1024, ~73-2526 Kbps
Аудио: AAC, 2 ch, 93-147 Kbps

Mediainfo:

Общее
Полное имя : .\05 Онлайн библиотека на Spring Boot (v. 2)\Addons\SSL и HTTPS\1. Вводные уроки (из курса Spring Security)\4-Доп.видео к дом.заданию.mp4
Формат : MPEG-4
Профиль формата : Base Media / Version 2
Идентификатор кодека : mp42 (isom/mp42)
Размер файла : 10,7 Мбайт
Продолжительность : 5 м. 23 с.
Режим общего битрейта : Переменный
Общий поток : 276 Кбит/сек
Дата кодирования : UTC 2013-12-18 23:51:44
Дата пометки : UTC 2013-12-18 23:51:44
gsst : 0
gstd : 323848
gssd : BADC28982HH1409667780392550
gshh : r5---sn-aigllnsz.googlevideo.com
Видео
Идентификатор : 1
Формат : AVC
Формат/Информация : Advanced Video Codec
Профиль формата : [email protected]
Настройки формата : 1 Ref Frames
Параметр CABAC формата : Нет
Параметр RefFrames формата : 1 кадр
Идентификатор кодека : avc1
Идентификатор кодека/Информация : Advanced Video Coding
Продолжительность : 5 м. 23 с.
Битрейт : 178 Кбит/сек
Максимальный битрейт : 2000 Кбит/сек
Ширина : 640 пикселей
Высота : 360 пикселей
Соотношение сторон : 16:9
Режим частоты кадров : Постоянный
Частота кадров : 24,000 кадра/сек
Цветовое пространство : YUV
Субдискретизация насыщенности : 4:2:0
Битовая глубина : 8 бит
Тип развёртки : Прогрессивная
Бит/(Пиксели*Кадры) : 0.032
Размер потока : 6,86 Мбайт (64%)
Дата пометки : UTC 2013-12-18 23:51:46
Аудио
Идентификатор : 2
Формат : AAC
Формат/Информация : Advanced Audio Codec
Профиль формата : LC
Идентификатор кодека : mp4a-40-2
Продолжительность : 5 м. 23 с.
Вид битрейта : Переменный
Битрейт : 96,0 Кбит/сек
Максимальный битрейт : 103 Кбит/сек
Каналы : 2 канала
Расположение каналов : Front: L R
Частота : 44,1 КГц
Частота кадров : 43,066 кадра/сек (1024 SPF)
Метод сжатия : С потерями
Размер потока : 3,71 Мбайт (35%)
Заголовок : IsoMedia File Produced by Google, 5-11-2011
Дата кодирования : UTC 2013-12-18 23:51:46
Дата пометки : UTC 2013-12-18 23:51:46
Общее
Полное имя : .\05 Онлайн библиотека на Spring Boot (v. 2)\Addons\RESTful сервисы\video\5-Вызов методов.mp4
Формат : MPEG-4
Профиль формата : Base Media / Version 2
Идентификатор кодека : mp42 (isom/mp42)
Размер файла : 74,2 Мбайт
Продолжительность : 10 м. 1 с.
Режим общего битрейта : Переменный
Общий поток : 1035 Кбит/сек
Дата кодирования : UTC 2017-02-10 16:51:36
Дата пометки : UTC 2017-02-10 16:51:36
Видео
Идентификатор : 1
Формат : AVC
Формат/Информация : Advanced Video Codec
Профиль формата : [url=mailto:[email protected]][email protected][/url]
Настройки формата : 1 Ref Frames
Параметр CABAC формата : Нет
Параметр RefFrames формата : 1 кадр
Идентификатор кодека : avc1
Идентификатор кодека/Информация : Advanced Video Coding
Продолжительность : 10 м. 1 с.
Битрейт : 906 Кбит/сек
Ширина : 1788 пикселей
Высота : 1004 пикселя
Соотношение сторон : 16:9
Режим частоты кадров : Постоянный
Частота кадров : 30,000 кадров/сек
Стандарт вещания : NTSC
Цветовое пространство : YUV
Субдискретизация насыщенности : 4:2:0
Битовая глубина : 8 бит
Тип развёртки : Прогрессивная
Бит/(Пиксели*Кадры) : 0.017
Размер потока : 65,0 Мбайт (88%)
Язык : English
Дата кодирования : UTC 2017-02-10 16:51:36
Дата пометки : UTC 2017-02-10 16:51:36
Цветовой диапазон : Limited
Аудио
Идентификатор : 2
Формат : AAC
Формат/Информация : Advanced Audio Codec
Профиль формата : LC
Идентификатор кодека : mp4a-40-2
Продолжительность : 10 м. 1 с.
Вид битрейта : Переменный
Битрейт : 126 Кбит/сек
Максимальный битрейт : 152 Кбит/сек
Каналы : 2 канала
Расположение каналов : Front: L R
Частота : 44,1 КГц
Частота кадров : 43,066 кадра/сек (1024 SPF)
Метод сжатия : С потерями
Размер потока : 9,01 Мбайт (12%)
Язык : English
Дата кодирования : UTC 2017-02-10 16:51:36
Дата пометки : UTC 2017-02-10 16:51:36
Общее
Полное имя : .\04 Бизнес процессы с применением Spring WebFlow\video\16-Spring_i_JSF.mp4
Формат : MPEG-4
Профиль формата : Base Media / Version 2
Идентификатор кодека : mp42 (isom/mp42)
Размер файла : 75,5 Мбайт
Продолжительность : 24 м. 48 с.
Режим общего битрейта : Переменный
Общий поток : 426 Кбит/сек
Дата кодирования : UTC 2014-03-13 15:15:36
Дата пометки : UTC 2014-03-13 15:15:36
Видео
Идентификатор : 1
Формат : AVC
Формат/Информация : Advanced Video Codec
Профиль формата : [email protected]
Настройки формата : 3 Ref Frames
Параметр CABAC формата : Нет
Параметр RefFrames формата : 3 кадра
Идентификатор кодека : avc1
Идентификатор кодека/Информация : Advanced Video Coding
Продолжительность : 24 м. 48 с.
Продолжительность оригинала : 24 м. 48 с.
Битрейт : 297 Кбит/сек
Ширина : 1804 пикселя
Высота : 1128 пикселей
Соотношение сторон : 16:10
Режим частоты кадров : Переменный
Частота кадров : 30,000 кадров/сек
Минимальная частота кадров : 30,000 кадров/сек
Максимальная частота кадров : 30,030 кадров/сек
Стандарт вещания : NTSC
Цветовое пространство : YUV
Субдискретизация насыщенности : 4:2:0
Битовая глубина : 8 бит
Тип развёртки : Прогрессивная
Бит/(Пиксели*Кадры) : 0.005
Размер потока : 52,7 Мбайт (70%)
Размер потока оригинала : 52,7 Мбайт (70%)
Язык : English
Дата кодирования : UTC 2014-03-13 15:15:36
Дата пометки : UTC 2014-03-13 15:15:36
Цветовой диапазон : Limited
mdhd_Duration : 1488500
Аудио
Идентификатор : 2
Формат : AAC
Формат/Информация : Advanced Audio Codec
Профиль формата : LC
Идентификатор кодека : mp4a-40-2
Продолжительность : 24 м. 48 с.
Продолжительность оригинала : 24 м. 48 с.
Вид битрейта : Переменный
Битрейт : 126 Кбит/сек
Максимальный битрейт : 173 Кбит/сек
Каналы : 2 канала
Расположение каналов : Front: L R
Частота : 44,1 КГц
Частота кадров : 43,066 кадра/сек (1024 SPF)
Метод сжатия : С потерями
Размер потока : 22,3 Мбайт (30%)
Размер потока оригинала : 22,3 Мбайт (30%)
Язык : English
Дата кодирования : UTC 2014-03-13 15:15:36
Дата пометки : UTC 2014-03-13 15:15:36
mdhd_Duration : 1488538
Общее
Полное имя : .\01 Основы Spring Framework с нуля\1.Core\2\Maven.mp4
Формат : MPEG-4
Профиль формата : Base Media / Version 2
Идентификатор кодека : mp42 (isom/mp42)
Размер файла : 139 Мбайт
Продолжительность : 1 ч. 13 м.
Режим общего битрейта : Переменный
Общий поток : 265 Кбит/сек
Дата кодирования : UTC 2014-01-13 10:05:06
Дата пометки : UTC 2014-01-13 10:05:06
Видео
Идентификатор : 1
Формат : AVC
Формат/Информация : Advanced Video Codec
Профиль формата : [email protected]
Настройки формата : 3 Ref Frames
Параметр CABAC формата : Нет
Параметр RefFrames формата : 3 кадра
Идентификатор кодека : avc1
Идентификатор кодека/Информация : Advanced Video Coding
Продолжительность : 1 ч. 13 м.
Продолжительность оригинала : 1 ч. 13 м.
Битрейт : 169 Кбит/сек
Ширина : 1832 пикселя
Высота : 1024 пикселя
Соотношение сторон : 16:9
Режим частоты кадров : Переменный
Частота кадров : 30,000 кадров/сек
Минимальная частота кадров : 30,000 кадров/сек
Максимальная частота кадров : 30,030 кадров/сек
Стандарт вещания : NTSC
Цветовое пространство : YUV
Субдискретизация насыщенности : 4:2:0
Битовая глубина : 8 бит
Тип развёртки : Прогрессивная
Бит/(Пиксели*Кадры) : 0.003
Размер потока : 88,5 Мбайт (64%)
Размер потока оригинала : 88,5 Мбайт (64%)
Язык : English
Дата кодирования : UTC 2014-01-13 10:05:06
Дата пометки : UTC 2014-01-13 10:05:06
Цветовой диапазон : Limited
mdhd_Duration : 4397634
Аудио
Идентификатор : 2
Формат : AAC
Формат/Информация : Advanced Audio Codec
Профиль формата : LC
Идентификатор кодека : mp4a-40-2
Продолжительность : 1 ч. 13 м.
Продолжительность оригинала : 1 ч. 13 м.
Вид битрейта : Переменный
Битрейт : 93,6 Кбит/сек
Максимальный битрейт : 181 Кбит/сек
Каналы : 2 канала
Расположение каналов : Front: L R
Частота : 44,1 КГц
Частота кадров : 43,066 кадра/сек (1024 SPF)
Метод сжатия : С потерями
Размер потока : 49,1 Мбайт (35%)
Размер потока оригинала : 49,1 Мбайт (35%)
Язык : English
Дата кодирования : UTC 2014-01-13 10:05:06
Дата пометки : UTC 2014-01-13 10:05:06
mdhd_Duration : 4397674

Дополнительная информация:

В раздаче имеются архивы! В них содержится дополнительные материалы.
Скриншоты:
       
Other forum [Profile] [PM]
Display posts from previous:    
Reply to topic

The time now is: Today 06:02

All times are GMT + 3 Hours



You cannot post new topics in this forum
You cannot reply to topics in this forum
You cannot edit your posts in this forum
You cannot delete your posts in this forum
You cannot vote in polls in this forum
You cannot attach files in this forum
You cannot download files in this forum