Today is a free download without charge Download

OTUS | Алгоритмы для разработчиков (2019) PCRec [H.264] [Обновляемая]

Reply to topic
 
Author
Message

Omen ®

Longevity: 7 years 10 months

Posts: 181087

Торрент-статистика

Post 15-Dec-2012 00:56

[Quote]

OTUS | Алгоритмы для разработчиков (2019) PCRec [H.264] [Обновляемая] - Автор (режиссер): OTUS
Жанр: Программирование
Описание:
Знание классических алгоритмов и структур данных — обязательное требование, которое предъявляют крупные IT-компании к претендентам на вакансию Middle Developer. Именно понимание принципов работы алгоритмов и структур данных позволяет повысить производительность программ и улучшить качество кода.
Поэтому для вас мы разработали уникальную авторскую программу от инженера-программиста из Лаборатории Касперского, которая поможет на профессиональном уровне.
Продолжительность: 54:35:01
Качество видео: PCRec
Видео: AVC/H.264, 1440x900-1920x1080, ~62-411 Kbps
Аудио: AAC, 1 ch, 45-180 Kbps

MediaInfo:

Общее
Полное имя : .\06. Сортировка слиянием, timsort. Быстрая сортировка\06.mp4
Формат : MPEG-4
Профиль формата : Base Media
Идентификатор кодека : isom (isom/iso2/avc1/mp41)
Размер файла : 169 Мбайт
Продолжительность : 1 ч. 47 м.
Общий поток : 219 Кбит/сек
Программа кодирования : Lavf58.20.100
Видео
Идентификатор : 1
Формат : AVC
Формат/Информация : Advanced Video Codec
Профиль формата : [email protected]
Настройки формата : CABAC / 11 Ref Frames
Параметр CABAC формата : Да
Параметр RefFrames формата : 11 кадров
Идентификатор кодека : avc1
Идентификатор кодека/Информация : Advanced Video Coding
Продолжительность : 1 ч. 47 м.
Битрейт : 160 Кбит/сек
Ширина : 1440 пикселей
Высота : 900 пикселей
Соотношение сторон : 16:10
Режим частоты кадров : Постоянный
Частота кадров : 25,000 кадров/сек
Цветовое пространство : YUV
Субдискретизация насыщенности : 4:2:0
Битовая глубина : 8 бит
Тип развёртки : Прогрессивная
Бит/(Пиксели*Кадры) : 0.005
Размер потока : 123 Мбайт (73%)
Codec configuration box : avcC
Аудио
Идентификатор : 2
Формат : AAC LC
Формат/Информация : Advanced Audio Codec Low Complexity
Идентификатор кодека : mp4a-40-2
Продолжительность : 1 ч. 47 м.
Вид битрейта : Постоянный
Битрейт : 54,7 Кбит/сек
Каналы : 1 канал
ChannelLayout : C
Частота : 32,0 КГц
Частота кадров : 31,250 кадров/сек (1024 SPF)
Метод сжатия : С потерями
Размер потока : 42,1 Мбайт (25%)
Заголовок : AAC audio
Default : Да
AlternateGroup/String : 1
Общее
Полное имя : .\20. Heap manager, Garbage collector\20.mp4
Формат : MPEG-4
Профиль формата : Base Media / Version 2
Идентификатор кодека : mp42 (isom/mp42)
Размер файла : 385 Мбайт
Продолжительность : 1 ч. 55 м.
Режим общего битрейта : Переменный
Общий поток : 467 Кбит/сек
Дата кодирования : UTC 2019-03-25 19:02:54
Дата пометки : UTC 2019-03-25 19:02:54
Видео
Идентификатор : 2
Формат : AVC
Формат/Информация : Advanced Video Codec
Профиль формата : [email protected]
Настройки формата : CABAC / 11 Ref Frames
Параметр CABAC формата : Да
Параметр RefFrames формата : 11 кадров
Идентификатор кодека : avc1
Идентификатор кодека/Информация : Advanced Video Coding
Продолжительность : 1 ч. 55 м.
Битрейт : 411 Кбит/сек
Ширина : 1680 пикселей
Высота : 1050 пикселей
Соотношение сторон : 16:10
Режим частоты кадров : Постоянный
Частота кадров : 25,000 кадров/сек
Цветовое пространство : YUV
Субдискретизация насыщенности : 4:2:0
Битовая глубина : 8 бит
Тип развёртки : Прогрессивная
Бит/(Пиксели*Кадры) : 0.009
Размер потока : 339 Мбайт (88%)
Дата кодирования : UTC 2019-03-25 19:02:54
Дата пометки : UTC 2019-03-25 19:02:54
Codec configuration box : avcC
Аудио
Идентификатор : 1
Формат : AAC LC
Формат/Информация : Advanced Audio Codec Low Complexity
Идентификатор кодека : mp4a-40-2
Продолжительность : 1 ч. 55 м.
Вид битрейта : Переменный
Битрейт : 53,4 Кбит/сек
Максимальный битрейт : 108 Кбит/сек
Каналы : 1 канал
ChannelLayout : C
Частота : 32,0 КГц
Частота кадров : 31,250 кадров/сек (1024 SPF)
Метод сжатия : С потерями
Размер потока : 44,0 Мбайт (11%)
Заголовок : AAC audio
Дата кодирования : UTC 2019-03-25 19:02:54
Дата пометки : UTC 2019-03-25 19:02:54
Общее
Полное имя : .\17. Минимальные остовные деревья. Алгоритмы Крускала и Прима\17.mp4
Формат : MPEG-4
Профиль формата : Base Media / Version 2
Идентификатор кодека : mp42 (isom/mp42)
Размер файла : 173 Мбайт
Продолжительность : 1 ч. 35 м.
Режим общего битрейта : Переменный
Общий поток : 254 Кбит/сек
Дата кодирования : UTC 2019-03-13 19:09:27
Дата пометки : UTC 2019-03-13 19:09:27
Видео
Идентификатор : 2
Формат : AVC
Формат/Информация : Advanced Video Codec
Профиль формата : [email protected]
Настройки формата : CABAC / 11 Ref Frames
Параметр CABAC формата : Да
Параметр RefFrames формата : 11 кадров
Идентификатор кодека : avc1
Идентификатор кодека/Информация : Advanced Video Coding
Продолжительность : 1 ч. 35 м.
Битрейт : 200 Кбит/сек
Ширина : 1920 пикселей
Высота : 1080 пикселей
Соотношение сторон : 16:9
Режим частоты кадров : Постоянный
Частота кадров : 25,000 кадров/сек
Цветовое пространство : YUV
Субдискретизация насыщенности : 4:2:0
Битовая глубина : 8 бит
Тип развёртки : Прогрессивная
Бит/(Пиксели*Кадры) : 0.004
Размер потока : 136 Мбайт (79%)
Дата кодирования : UTC 2019-03-13 19:09:27
Дата пометки : UTC 2019-03-13 19:09:27
Codec configuration box : avcC
Аудио
Идентификатор : 1
Формат : AAC LC
Формат/Информация : Advanced Audio Codec Low Complexity
Идентификатор кодека : mp4a-40-2
Продолжительность : 1 ч. 35 м.
Вид битрейта : Переменный
Битрейт : 52,4 Кбит/сек
Максимальный битрейт : 126 Кбит/сек
Каналы : 1 канал
ChannelLayout : C
Частота : 32,0 КГц
Частота кадров : 31,250 кадров/сек (1024 SPF)
Метод сжатия : С потерями
Размер потока : 35,6 Мбайт (21%)
Заголовок : AAC audio
Дата кодирования : UTC 2019-03-13 19:09:27
Дата пометки : UTC 2019-03-13 19:09:27

История обновлений:

06.03.2020 торрент файл обновлен
--> Добавлены недостающие разделы:
----> 09. Двоичные деревья поиска, декартовы деревья, АВЛ-деревья
----> 10. Красно-черные деревья, расширяющиеся деревья, рандомизированные деревья
----> 27. Динамическое программирование
----> 28. Фильтр Блума
----> 29. Алгоритмы MinHash, SimHash
----> 30. Алгоритмы HyperLogLog, Count-Min Sketch
----> 31. Поиск экстремума функции
----> 32. Нейронные сети. Алгоритм обратного распостранения (backpropagation)
----> 33. Проекты

Раздача ведётся путём добавления новых файлов:

Раздача ведётся путём добавления новых файлов; при каждом добавлении создаётся новый торрент. Чтобы начать докачку новых файлов, пользователям необходимо сделать следующее:
(1) остановить скачивание,
(2) удалить старый торрент у себя из клиента (имеющиеся файлы удалять не надо),
(3) скачать новый торрент и запустить его у себя в клиенте вместо старого, при этом указать клиенту путь в старую папку, куда и должно происходить скачивание новых файлов.
Ваш клиент при этом должен произвести хеширование (проверку) старой папки (если не производит сам - помогите ему сделать это), и будет докачивать только те файлы, которых у вас ещё нет. Старые файлы при этом не удаляются, а продолжают раздаваться!
Eсли вы уже удалили старые файлы, то предотвратить повторную закачку старых файлов можно, отжав галочку в соответствующих местах при запуске нового торрента. По возможности, желательно не удалять старые файлы как можно дольше, чтобы релизёр не только продолжал раздавать старые файлы, а смог сконцентрироваться на новых.
Скриншоты:
       
Other forum [Profile] [PM]
Display posts from previous:    
Reply to topic

The time now is: Today 13:38

All times are GMT + 3 Hours



You cannot post new topics in this forum
You cannot reply to topics in this forum
You cannot edit your posts in this forum
You cannot delete your posts in this forum
You cannot vote in polls in this forum
You cannot attach files in this forum
You cannot download files in this forum