Today is a free download without charge Download

OTUS | Подготовительный курс «Разработчик Java» (2018) PCRec [H.264/720p-LQ]

Reply to topic
 
Author
Message

Omen ®

Longevity: 7 years 10 months

Posts: 181087

Торрент-статистика

Post 15-Dec-2012 00:56

[Quote]

OTUS
Подготовительный курс «Разработчик Java»
- Автор (режиссер): OTUS
Жанр: Программирование, Java
Описание:
Программа подготовительных курсов «Разработчик Java» содержит материалы, позволяющие получить базовые знания Java, необходимые для поступления на курс «Разработчик Java».
Продолжительность: 20:32:31
Качество видео: PCRec
Видео: AVC/H.264, 1280x720, ~104-857 Kbps
Аудио: AAC, 2 ch, 125-192 Kbps

Mediainfo:

Общее
Полное имя : .\01 Язык Java\01 Базовые синтаксические конструкции и операторы в Java\M.01.01 Базовые синтаксические конструкции и операторы в Java.mp4
Формат : MPEG-4
Профиль формата : Base Media / Version 2
Идентификатор кодека : mp42 (isom/mp42)
Размер файла : 548 Мбайт
Продолжительность : 1 ч. 34 м.
Режим общего битрейта : Переменный
Общий поток : 809 Кбит/сек
Дата кодирования : UTC 2018-03-14 14:27:19
Дата пометки : UTC 2018-03-14 14:27:19
gsst : 0
gstd : 5684198
Видео
Идентификатор : 1
Формат : AVC
Формат/Информация : Advanced Video Codec
Профиль формата : [url=mailto:[email protected]][email protected][/url]
Настройки формата : CABAC / 1 Ref Frames
Параметр CABAC формата : Да
Параметр RefFrames формата : 1 кадр
Параметр GOP формата : M=1, N=60
Идентификатор кодека : avc1
Идентификатор кодека/Информация : Advanced Video Coding
Продолжительность : 1 ч. 34 м.
Битрейт : 615 Кбит/сек
Максимальный битрейт : 3860 Кбит/сек
Ширина : 1280 пикселей
Высота : 720 пикселей
Соотношение сторон : 16:9
Режим частоты кадров : Постоянный
Частота кадров : 30,000 кадров/сек
Цветовое пространство : YUV
Субдискретизация насыщенности : 4:2:0
Битовая глубина : 8 бит
Тип развёртки : Прогрессивная
Бит/(Пиксели*Кадры) : 0.022
Размер потока : 416 Мбайт (76%)
Дата пометки : UTC 2018-03-14 14:28:06
Цветовой диапазон : Limited
Основные цвета : BT.709
Характеристики трансфера : BT.709
Коэффициенты матрицы : BT.709
Аудио
Идентификатор : 2
Формат : AAC
Формат/Информация : Advanced Audio Codec
Профиль формата : LC
Идентификатор кодека : mp4a-40-2
Продолжительность : 1 ч. 34 м.
Вид битрейта : Переменный
Битрейт : 192 Кбит/сек
Максимальный битрейт : 201 Кбит/сек
Каналы : 2 канала
Расположение каналов : Front: L R
Частота : 44,1 КГц
Частота кадров : 43,066 кадра/сек (1024 SPF)
Метод сжатия : С потерями
Размер потока : 130 Мбайт (24%)
Заголовок : IsoMedia File Produced by Google, 5-11-2011
Дата кодирования : UTC 2018-03-14 14:27:45
Дата пометки : UTC 2018-03-14 14:28:06

Программа:

Модуль 1: Язык Java
Цель: учащийся должен уметь создавать новый проект, управлять потоком исполнения, работать с исключениями, разбираться в особенностях работы с примитивными типами.
Занятие 1. Базовые синтаксические конструкции и операторы в Java
• Типы данных, базовые типы данных
• Преобразование типов
• Битовые операторы, битовые маски
• Логические и математические операторы, приоритеты
• Операторы управления логикой работы приложения
• Циклы
• Структура консольного Java-приложения
Занятие 2. Ссылочные типы данных и обработка ошибок
• IDE и ее основные возможности
• Класс и объект, создание объекта
• Поля и методы класса
• Области видимости
• Передача по ссылке
• Особенности == и equals
• Исключительная ситуация, Stack trace ошибки
Занятие 3. Работа массивами и строками
• class Object
• == и equals()
• массивы
• String
• StringBuilder
• перегрузка методов
• java.util.Arrays-Модуль 2: Проектирование и тестирование приложений
Цель: учащийся должен понимать UML диаграммы, разбираться в структуре классов приложений, понимать и уметь применять на языке Java основные концепции ООП, писать юнит-тесты.
Занятие 1. Объектно –ориентированное программирование в Java
• Ссылки между объектами
• Инкапсуляция, модификаторы доступа
• Наследование, extends
• Абстракция, интерфейс, implements
• Ключевые слова this и super
• Generics
Занятие 2. Концепции объектно –ориентированного проектирования
• Проблема проектирования
• Концепции ООП: наследование, полиморфизм, инкапсуляция, абстракция
• Нотация UML для обозначения иерархий классов и их взаимоотношений
• Базовые паттерны
Занятие 3. Unit-тестирование
• Концепция Unit-тестирования
• Подключение библиотек
• Git
• Система сборки Maven
• Использования библиотеки Junit-Модуль 3: Платформа Java
Цель: учащийся должен понимать почему Java это не только язык но и платформа для разработки приложений, уметь собирать приложения без среды разработки, понимать жизненный цикл приложения и параметры, которые на него влияют.
Занятие 1. Устройство платформы Java
• История Java
• Кроссплатформенность
• JVM
• JRE, JDK, Interpreter, JIT
• Vm start parameters
Занятие 2. Сборка и упаковка Java-приложения
• Компилятор javac,
• .class файл, Bytecode
• Запуск приложения из консоли
• Подключение библиотек
• Утилита jar и .jar файл
• Манифест
• Ресурсы
• Maven как система сборки
Занятие 3. Сборка мусора и отладка
• GC (basic)
• Типы ссылок
• Отладка приложения
• Remote debug
• jconsole-Модуль 4: Стандартная библиотека
Цель: учащийся должен разбираться в основных контейнерах и классах, которые содержит стандартная библиотека, понимать когда и какие контейнеры нужно использовать, уметь работать со временем, случайными числами, читать и писать данные в файл.
Занятие 1. Классы-контейнеры
• Интерфейсы List, Set, Map, Queue
• Реализации Collection
• Реализации Map
• Класс Collections
Занятие 2. Исключения. Дата и время. Генерация случайных чисел.
• Throwable
• Обработка исключений
• AutoCloseable
• Date and Time
• Random
Занятие 3. Работа с файлами
• IO and Streams
• Reader, Writer
• Запись в файл и чтение из файла
Скриншоты:
       
Other forum [Profile] [PM]
Display posts from previous:    
Reply to topic

The time now is: Today 16:32

All times are GMT + 3 Hours



You cannot post new topics in this forum
You cannot reply to topics in this forum
You cannot edit your posts in this forum
You cannot delete your posts in this forum
You cannot vote in polls in this forum
You cannot attach files in this forum
You cannot download files in this forum