Today is a free download without charge Download

Introduction to Finance [2012, Finance, DVDRip, ENG] (Coursera Видеоурок)

Reply to topic
 
Author
Message

Omen ®

Longevity: 7 years 10 months

Posts: 181087

Торрент-статистика

Post 15-Dec-2012 00:55

[Quote]

Introduction to Finance
Страна: USA
Тематика: Finance
Тип раздаваемого материала: Видеоурок
Год выпуска: 2012
Издательство: www.coursera.org
Язык: Английский
Перевод: Субтитры
Язык субтитров: ENG
Описание:
Курс от Мичиганского Университета. Описываются базовые понятия в области финансов.
About the Course
This course is primarily devoted to the fundamental principles of valuation. We will learn and apply the concepts of time value of money and risk to understand the major determinants of value creation. We will use both theory and real world examples to demonstrate how to value any asset.
About the Instructor
Gautam Kaul is the John C. and Sally S. Morley Professor of Finance at the Ross School of Business (RSB), University of Michigan. Gautam has published widely in top finance journals and was awarded the Senior Faculty Research Award in 2003 for sustained, exceptional, and continuing contributions to scholarly research in the field of business, and noteworthy contributions to building and maintaining a strong research environment at RSB. Gautam has similarly taught a wide array of courses ranging from Corporate Finance, Investment and Financial Institutions, to advanced courses like Finance and the Sustainable Enterprise. Gautam has won several teaching awards, including MBA Teaching Excellence Award in 1996, 2006, 2009 and 2011. Gautam was awarded the 2009 Victor L. Bernard Leadership in Teaching Award by the RSB faculty.

Расписание курса

Качество: DVDRip
Формат: MP4
Видео кодек: Advanced Video Coding (AVC1)
Аудио кодек: AAC

MediaInfo

E:\Video lectures\Introduction to Finance (University of Michigan, Gautam Kaul) 2012\Week 1\2 - 1 - 1.1 Introduction Why Finance (1857).mp4 General Complete name : E:\Video lectures\Introduction to Finance (University of Michigan, Gautam Kaul) 2012\Week 1\2 - 1 - 1.1 Introduction Why Finance (1857).mp4 Format : MPEG-4 Format profile : Base Media Codec ID : isom File size : 55.7 MiB Duration : 18mn 57s Overall bit rate : 411 Kbps Writing application : Lavf53.29.100 Video #1 ID : 1 Format : AVC Format/Info : Advanced Video Codec Format profile : [email protected] Format settings, CABAC : Yes Format settings, ReFrames : 4 frames Codec ID : avc1 Codec ID/Info : Advanced Video Coding Duration : 18mn 57s Bit rate : 275 Kbps Width : 960 pixels Height : 540 pixels Display aspect ratio : 16:9 Frame rate mode : Constant Frame rate : 29.970 fps Color space : YUV Chroma subsampling : 4:2:0 Bit depth : 8 bits Scan type : Progressive Bits/(Pixel*Frame) : 0.018 Stream size : 37.3 MiB (67%) Writing library : x264 core 120 r2120 0c7dab9 Encoding settings : cabac=1 / ref=3 / deblock=1:0:0 / analyse=0x3:0x113 / me=hex / subme=7 / psy=1 / psy_rd=1.00:0.00 / mixed_ref=1 / me_range=16 / chroma_me=1 / trellis=1 / 8x8dct=1 / cqm=0 / deadzone=21,11 / fast_pskip=1 / chroma_qp_offset=-2 / threads=12 / sliced_threads=0 / nr=0 / decimate=1 / interlaced=0 / bluray_compat=0 / constrained_intra=0 / bframes=3 / b_pyramid=2 / b_adapt=1 / b_bias=0 / direct=1 / weightb=1 / open_gop=0 / weightp=2 / keyint=250 / keyint_min=25 / scenecut=40 / intra_refresh=0 / rc_lookahead=40 / rc=crf / mbtree=1 / crf=28.0 / qcomp=0.60 / qpmin=0 / qpmax=69 / qpstep=4 / ip_ratio=1.40 / aq=1:1.00 Audio #2 ID : 2 Format : AAC Format/Info : Advanced Audio Codec Format profile : LC Codec ID : 40 Duration : 18mn 57s Bit rate mode : Constant Bit rate : 128 Kbps Channel(s) : 2 channels Channel positions : Front: L R Sampling rate : 44.1 KHz Compression mode : Lossy Delay relative to video : 67ms Stream size : 17.4 MiB (31%)

-

Скриншоты

Other forum [Profile] [PM]
Display posts from previous:    
Reply to topic

The time now is: Today 04:25

All times are GMT + 3 Hours



You cannot post new topics in this forum
You cannot reply to topics in this forum
You cannot edit your posts in this forum
You cannot delete your posts in this forum
You cannot vote in polls in this forum
You cannot attach files in this forum
You cannot download files in this forum