Today is a free download without charge Download

Я никогда не буду твоей / I Could Never Be Your Woman (Эми Хекерлинг) [2007 г., комедия, мелодрама, драма, BDRip 720p]

Reply to topic
 
Author
Message

Delia ®

Gender:

Longevity: 9 years 7 months

Posts: 1821

Торрент-статистика

Post 13-Apr-2011 13:25

[Quote]

Я никогда не буду твоейI Could Never Be Your Woman Год выпуска: 2007
Страна: США
Жанр: комедия, мелодрама, драма
Продолжительность: 01:33:02
Перевод: Профессиональный (полное дублирование)
Режиссер: Эми Хекерлинг
Продюссер: Сериз Халлам, Алан Лэтэм, Филипп Мартинез
Сценарий: Эми Хекерлинг
Бюджет: $24 000 000
Премьера в мире: 11 мая 2007
В ролях: Мишель Пфайффер, Пол Рaдд, Джон Ловиц, Сара Александр, Бриттани Бенсон, Джед Бернард, Оливия Колман, Стэйси Дэш, Дэвид Митчел
Описание: Роузи работает телепродюсером, и в окружении молоденьких красавиц все больше переживает по поводу своего возраста и неудачного брака. Но в ее жизни происходит чудо, она встречает мужчину, который, несмотря на весьма молодой возраст, помогает ей не только вновь обрести чувство любви, но и заставляет ее вновь поверить в себя. Адам, обаятельный и яркий, меняет жизнь женщины. Тем временем дочь Роузи переживает свою первую влюбленность.
Качество: BDRip720p ( Blu-Ray Remux 1080p)
Формат: MKV
Видео кодек: H.26x
Аудио кодек: AC3
Видео: English, 5766 Кбит/сек, 1280*720 (16:9), в 25,000 кадр/сек, AVC
Аудио: Russian, 448 Кбит/сек, 48,0 КГц, 16 бит, 6 канала(ов), AC-3|дубляж
Аудио:Russian, 192 Кбит/сек, 48,0 КГц, 16 бит, 2 канала(ов), AC-3|Любительский двухголосый
Аудио:English, 320 Кбит/сек, 48,0 КГц, 16 бит, 6 канала(ов), AC-3|Оригинал
Субтитры:English srt

MediaInfo:

Общее
Уникальный идентификатор : 195215320729230720442179500351341573193 (0x92DD1A69F9BCD41BA36233A4C96DB449)
Полное имя : E:\торрент\Ja.nikogda.ne.budu.tvoej(2007)BDRip 720p.mkv
Формат : Matroska
Размер файла : 4,37 Гбайт
Продолжительность : 1 ч. 33 м.
Общий поток : 6731 Кбит/сек
Дата кодирования : UTC 2011-04-13 06:28:17
Программа кодирования : mkvmerge v4.6.0 ('Still Crazy After All These Years') built on Mar 10 2011 02:50:32
Библиотека кодирования : libebml v1.2.0 + libmatroska v1.1.0
Видео
Идентификатор : 1
Формат : AVC
Формат/Информация : Advanced Video Codec
Профиль формата : [email protected]
Параметр CABAC формата : Да
Параметр ReFrames формата : 10 кадры
Идентификатор кодека : V_MPEG4/ISO/AVC
Продолжительность : 1 ч. 33 м.
Битрейт : 5766 Кбит/сек
Ширина : 1280 пикс.
Высота : 720 пикс.
Соотношение сторон : 16:9
Частота кадров : 25,000 кадр/сек
Цветовое пространство : YUV
Подвыборка цветности : 4:2:0
Битовая глубина : 8 бит
Тип развёртки : Прогрессивная
Бит/(Пиксели*Кадры) : 0.250
Размер потока : 3,66 Гбайт (84%)
Библиотека кодирования : x264 core 114 r1924 08d04a4
Настройки программы : cabac=1 / ref=10 / deblock=1:-3:-3 / analyse=0x3:0x133 / me=umh / subme=7 / psy=1 / psy_rd=1.00:0.15 / mixed_ref=1 / me_range=32 / chroma_me=1 / trellis=2 / 8x8dct=1 / cqm=0 / deadzone=21,11 / fast_pskip=0 / chroma_qp_offset=-3 / threads=6 / sliced_threads=0 / nr=0 / decimate=1 / interlaced=0 / constrained_intra=0 / bframes=5 / b_pyramid=2 / b_adapt=1 / b_bias=0 / direct=1 / weightb=1 / open_gop=0 / weightp=2 / keyint=250 / keyint_min=24 / scenecut=40 / intra_refresh=0 / rc_lookahead=40 / rc=2pass / mbtree=1 / bitrate=5766 / ratetol=1.0 / qcomp=0.60 / qpmin=4 / qpmax=51 / qpstep=4 / cplxblur=20.0 / qblur=0.5 / ip_ratio=1.40 / aq=1:1.00
Язык : English
Аудио #1
Идентификатор : 2
Формат : AC-3
Формат/Информация : Audio Coding 3
Расширение режима : CM (complete main)
Идентификатор кодека : A_AC3
Продолжительность : 1 ч. 33 м.
Вид битрейта : Постоянный
Битрейт : 448 Кбит/сек
Канал(ы) : 6 канала(ов)
Расположение каналов : Front: L C R, Side: L R, LFE
Частота : 48,0 КГц
Битовая глубина : 16 бит
Метод сжатия : С потерями
Размер потока : 298 Мбайт (7%)
Язык : Russian
Аудио #2
Идентификатор : 3
Формат : AC-3
Формат/Информация : Audio Coding 3
Расширение режима : CM (complete main)
Идентификатор кодека : A_AC3
Продолжительность : 1 ч. 33 м.
Вид битрейта : Постоянный
Битрейт : 192 Кбит/сек
Канал(ы) : 2 канала(ов)
Расположение каналов : Front: L R
Частота : 48,0 КГц
Битовая глубина : 16 бит
Метод сжатия : С потерями
Размер потока : 128 Мбайт (3%)
Язык : Russian
Аудио #3
Идентификатор : 4
Формат : AC-3
Формат/Информация : Audio Coding 3
Расширение режима : CM (complete main)
Идентификатор кодека : A_AC3
Продолжительность : 1 ч. 33 м.
Вид битрейта : Постоянный
Битрейт : 320 Кбит/сек
Канал(ы) : 6 канала(ов)
Расположение каналов : Front: L C R, Side: L R, LFE
Частота : 48,0 КГц
Битовая глубина : 16 бит
Метод сжатия : С потерями
Размер потока : 213 Мбайт (5%)
Язык : English
Текст
Идентификатор : 5
Формат : UTF-8
Идентификатор кодека : S_TEXT/UTF8
Идентификатор кодека/Информация : UTF-8 Plain Text
Язык : English

Скриншоты

       

_________________
Человек – это канат, натянутый между животным и сверхчеловеком, – канат над пропастью.
В человеке ценно то, что он мост, а не цель. Фридрих Ницше


Last edited by Delia on 2011-08-26 18:38; edited 1 time in total
Other forum [Profile] [PM]
Display posts from previous:    
Reply to topic

The time now is: Today 10:35

All times are GMT + 3 Hours



You cannot post new topics in this forum
You cannot reply to topics in this forum
You cannot edit your posts in this forum
You cannot delete your posts in this forum
You cannot vote in polls in this forum
You cannot attach files in this forum
You cannot download files in this forum