Today is a free download without charge Download

Ты и я (Роланд Жоффе) [2010 г.] (мелодрама, комедия) [DVDRip-AVC] [internal release]

Reply to topic
 
Author
Message

Omen ®

Longevity: 6 years 10 months

Posts: 181090

Торрент-статистика

Post 13-Apr-2011 12:07

[Quote]

Ты и я
Год выпуска: 2010
Cтрана: США, Россия
Жанр: мелодрама, комедия
Режиссер: Роланд Жоффе
Сценарий: Шоун Шеппс, Люк Гольтц, Эндрю Каллен, ...
Продюсер: Александр Шишкин, Сергей Конов, Леонид Минковский, ...

В ролях: Антон Ельчин, Миша Бартон, Шантель Ван Сантен, Олеся Судзиловская, Александр Белоногов, Александр Семчев, Юлия Волкова, Лена Катина, Григорий Леваков, Трой МакКаббин

Описание: Главная героиня фильма — шестнадцатилетняя американка Джейни Соер — недавно переехала в Москву и «влюбилась» в группу Тату. На почве музыкальных пристрастий героиня знакомится в чате с русской сверстницей Ланой Старковой, и они вместе отправляются на концерт.

Бюджет: $20 000 000
Сборы в России : $909 383
Премьера (мир): 3 февраля 2011
Премьера (РФ): 3 февраля 2011, «Централ Партнершип»
Рейтинг MPAA: рейтинг R



Источник/Качество: DVDRip-AVC
Формат: MKV
Видео кодек: H.26x
Аудио кодек: AC3
Видео: 1008x576, 1 866 Kbps, 25.000 fps
Аудио: 384 kbps, 6 ch, 48.0 KHz

MediaInfo


General
Complete name : D:Ty.i.ya.2010.D.DVDRip.x264.JRG.mkv
Format : Matroska
File size : 1.45 GiB
Duration : 1h 32mn
Overall bit rate : 2 245 Kbps
Encoded date : UTC 2011-04-09 05:58:19
Writing application : mkvmerge v4.0.0 ('The Stars were mine') сборка от Jun 6 2010 16:18:42
Writing library : libebml v1.0.0 + libmatroska v1.0.0
Video
ID : 1
Format : AVC
Format/Info : Advanced Video Codec
Format profile : [url=mailto:[email protected]][email protected][/url]
Format settings, CABAC : Yes
Format settings, ReFrames : 16 frames
Codec ID : V_MPEG4/ISO/AVC
Duration : 1h 32mn
Bit rate : 1 866 Kbps
Width : 1 008 pixels
Height : 576 pixels
Display aspect ratio : 16:9
Frame rate : 25.000 fps
Color space : YUV
Chroma subsampling : 4:2:0
Bit depth : 8 bits
Scan type : Progressive
Bits/(Pixel*Frame) : 0.129
Stream size : 1.18 GiB (81%)
Writing library : x264 core 113 r1884 7313bb5
Audio
ID : 2
Format : AC-3
Format/Info : Audio Coding 3
Mode extension : CM (complete main)
Codec ID : A_AC3
Duration : 1h 32mn
Bit rate mode : Constant
Bit rate : 384 Kbps
Channel(s) : 6 channels
Channel positions : Front: L C R, Side: L R, LFE
Sampling rate : 48.0 KHz
Bit depth : 16 bits
Stream size : 255 MiB (17%)

Скриншоты


     
Other forum [Profile] [PM]

Vildanoff

Gender:

Longevity: 9 years 3 months

Posts: 81

Location: г. Уфа

Торрент-статистика

Post 13-Apr-2011 13:46 (after 1 hour 39 minutes)

[Quote]

 

_________________
Other forum [Profile] [PM]

Dracula

Longevity: 5 years 11 months

Posts: 10588

Торрент-статистика

Post 13-Apr-2011 13:46 (after 29 seconds)

Топик был перенесен из форума Наше кино (2011 Новинки) в форум Фильмы 2006-2010

Vildanoff
 
Display posts from previous:    
Reply to topic

The time now is: Today 04:56

All times are GMT + 3 Hours



You cannot post new topics in this forum
You cannot reply to topics in this forum
You cannot edit your posts in this forum
You cannot delete your posts in this forum
You cannot vote in polls in this forum
You cannot attach files in this forum
You cannot download files in this forum