Today is a free download without charge Download

Чужая (Антон Борматов) [2010 г.] (драма, криминал) [DVDRip-AVC]

Reply to topic
 
Author
Message

Omen ®

Longevity: 8 years 1 month

Posts: 181087

Торрент-статистика

Post 13-Apr-2011 09:32

[Quote]

Чужая
Год выпуска: 2010
Производство: Россия
Жанр: драма, криминал
Продолжительность: 01:48:55
Режиссер: Антон Борматов

В ролях: Наталья Романычева (Анжела (Чужая)), Кирилл Полухин (Андрюха (Малыш)), Евгений Ткачук (Женя (Шустрый)), Анатолий Отраднов (Гиря), Александр Голубков (Толя (Сопля)), Евгений Мундум (Рашпиль), Олег Байкулов, Александр Корчагин (надзиратель), Дмитрий Ратомский (Бабай), Сергей Сипливый (колхозник), Константин Адаев (надзиратель), Виталий Салий (таксист)

Описание: 1990-е. Бандитский Киев. Бригада из четырех бойцов получает задание доставить из Праги девушку по кличке «Чужая». Она - родная сестра арестованного Бабая, чьи показания могут навредить важным людям.



Источник/Качество: DVDRip-AVC
Формат: MKV
Видео кодек: H.26x
Аудио кодек: AC3
Видео: 1606kbps, [email protected], 25.000 fps
Аудио: 320 kbps (6 ch) 48 KHz

Media Info


General
Complete name : D:\Видео\Internal Release\Chuzhaja.2010.x264.DVDRip.JRG.mkv
Format : Matroska
File size : 1.45 GiB
Duration : 1h 48mn
Overall bit rate : 1 912 Kbps
Encoded date : UTC 2011-04-10 18:56:08
Writing application : mkvmerge v4.6.0 ('Still Crazy After All These Years') сборка от Mar 13 2011 18:33:29
Writing library : libebml v1.2.0 + libmatroska v1.1.0
Video
ID : 1
Format : AVC
Format/Info : Advanced Video Codec
Format profile : [url=mailto:[email protected]][email protected][/url]
Format settings, CABAC : Yes
Format settings, ReFrames : 16 frames
Muxing mode : Container [email protected]
Codec ID : V_MPEG4/ISO/AVC
Duration : 1h 48mn
Bit rate : 1 606 Kbps
Width : 720 pixels
Height : 544 pixels
Display aspect ratio : 1.855
Frame rate : 25.000 fps
Color space : YUV
Chroma subsampling : 4:2:0
Bit depth : 8 bits
Scan type : Progressive
Bits/(Pixel*Frame) : 0.164
Stream size : 1.18 GiB (81%)
Writing library : x264 core 114 r1913 5fd3dce
Audio
ID : 2
Format : AC-3
Format/Info : Audio Coding 3
Mode extension : CM (complete main)
Codec ID : A_AC3
Duration : 1h 48mn
Bit rate mode : Constant
Bit rate : 320 Kbps
Channel(s) : 6 channels
Channel positions : Front: L C R, Side: L R, LFE
Sampling rate : 48.0 KHz
Bit depth : 16 bits
Stream size : 249 MiB (17%)

Скриншоты


       

Полноразмерные


           
Other forum [Profile] [PM]

Dracula

Longevity: 7 years 1 month

Posts: 11390

Торрент-статистика

Post 13-Apr-2011 10:14 (after 41 minute)

Топик был перенесен из форума Фильмы 2006-2010 в форум Наше кино (2001 - 2010)

Delia
 
Display posts from previous:    
Reply to topic

The time now is: Today 20:52

All times are GMT + 3 Hours



You cannot post new topics in this forum
You cannot reply to topics in this forum
You cannot edit your posts in this forum
You cannot delete your posts in this forum
You cannot vote in polls in this forum
You cannot attach files in this forum
You cannot download files in this forum