Today is a free download without charge Download

Белый лев / White Lion (Майкл Свон / Michael Swan) [2010 г.] (семейный) [DVDRip] (Sub)

Reply to topic
 
Author
Message

Omen ®

Longevity: 6 years 6 months

Posts: 181112

Торрент-статистика

Post 13-Apr-2011 09:12

[Quote]

Белый лев / White Lion
Год выпуска: 2010
Мировая премьера: 19 февраля 2010
Производство: ЮАР, Peru Productions
Жанр: семейный
Продолжительность: 01:33:02
Перевод: Субтитры
Оригинальный аудиопоток: Английский
Режиссер: Майкл Свон / Michael Swan
В ролях: В ролях: Джэми Бартлетт, Джон Кэни, Табо Малема, А.Дж. Ван дер Мерве

Описание: Согласно легенде, белые львы – посланники богов, но уникальность Летсатси просто делает его уязвимым в опасном мире африканского буша.
Белая шкура делает его заметным и он изгоняется из прайда плохо подготовленным к охоте. Близкий к голодной смерти, следует по запаху и отчаянно цепляется за добычу убитую другим львом. Так он встречает своего первого друга, Нкулу.
Нкулу больше знает о том, как выживают взрослые и показывает Летсатси несколько приемов, таких как определение положения крокодила и получение лучшего куска от добычи гиен. Они развлекающиеся подростки. Но однажды, будучи слишком беспечными, они забираются в курятник фермера и Нкулу погибает, попавшись в ловушку.
Летсатси учится, как охотится самостоятельно, постепенно прогрессируя от цесарки до антилопы, а известия про его успехи распространяются вокруг. Он вырастает в грозного льва, но перед тем как завладеет своим собственным прайдом, должен встретиться со своим величайшем врагом – трофейным охотником, для которого легенды бесполезны, а шкура белого льва бесценна.




Источник/Качество: DVDRip
Формат: AVI
Видео кодек: XviD
Видео: Xvid; 624x336; 23.98fps; 907 Kbps
Аудио: MPEG Audio Layer 3; 48000Hz; stereo 2 ch; 127kbps
Субтитры: русские SRT отдельным файлом

Media Info

Format : AVI
Format/Info : Audio Video Interleave
File size : 700 MiB
Duration : 1h 33mn
Overall bit rate : 1 047 Kbps
Writing application : VirtualDubMod 1.5.10.2 (build 2540/release)
Writing library : VirtualDubMod build 2540/release
Video
ID : 0
Format : MPEG-4 Visual
Format profile : Advanced [email protected]
Format settings, BVOP : Yes
Format settings, QPel : No
Format settings, GMC : No warppoints
Format settings, Matrix : Default (H.263)
Codec ID : XVID
Codec ID/Hint : XviD
Duration : 1h 33mn
Bit rate : 907 Kbps
Width : 624 pixels
Height : 336 pixels
Display aspect ratio : 1.857
Frame rate : 23.976 fps
Color space : YUV
Chroma subsampling : 4:2:0
Bit depth : 8 bits
Scan type : Progressive
Bits/(Pixel*Frame) : 0.180
Stream size : 606 MiB (87%)
Writing library : XviD 1.2.1 (UTC 2008-12-04)
Audio
ID : 1
Format : MPEG Audio
Format version : Version 1
Format profile : Layer 3
Mode : Joint stereo
Mode extension : MS Stereo
Codec ID : 55
Codec ID/Hint : MP3
Duration : 1h 33mn
Bit rate mode : Variable
Bit rate : 128 Kbps
Channel(s) : 2 channels
Sampling rate : 48.0 KHz
Stream size : 85.3 MiB (12%)
Alignment : Aligned on interleaves
Interleave, duration : 24 ms (0.58 video frame)
Interleave, preload duration : 144 ms
Writing library : LAME3.90.
Encoding settings : -m j -V 4 -q 2 -lowpass 17.6 --abr 128

Скриншоты


       
Other forum [Profile] [PM]
Display posts from previous:    
Reply to topic

The time now is: Today 10:07

All times are GMT + 3 Hours



You cannot post new topics in this forum
You cannot reply to topics in this forum
You cannot edit your posts in this forum
You cannot delete your posts in this forum
You cannot vote in polls in this forum
You cannot attach files in this forum
You cannot download files in this forum