Today is a free download without charge Download

Джунгли (Александр Войтинский) [2012.., Россия, Мелодрама, комедия, приключения, DVD9]

Reply to topic
 
Author
Message

Meshanik ®

Gender:

Longevity: 8 years 10 months

Posts: 3866

Location: Los Angeles

Торрент-статистика

Post 14-Dec-2012 12:55

[Quote]

Джунгли
«Любовь - это война!»
- Оригинальное название: Джунгли
Год выпуска: 2012
Производство: Кинокомпания CTB [Россия]
Жанр: Мелодрама, комедия, приключения
Продолжительность: 01:20:02
Перевод: Не требуется [Русский язык]
Субтитры: Отсутствуют
Режиссер: Александр Войтинский
В ролях: Сергей Светлаков, Вера Брежнева, Александр Макогон, Ирина Медведева, Александр Половцев, Марина Дюжева, Михаил Ефремов, Андрей Гаврилов
Описание фильма:
У Сергея и Марины в семейной жизни наступил кризис. Во время одной из ссор, они решают поехать в экзотическое путешествие. Всю дорогу между супругами не утихают ссоры, которые в конце концов приводят к тому, что они оказываются на необитаемом острове, затерянном в океане. Вместо того чтобы вместе бороться за выживание, наши герои продолжают выяснять отношения, постепенно переходя к настоящим боевым действиям. В довершение несчастий оказывается, что остров населен племенем воинствующих туземцев.
Дата мировой премьеры: 29 ноября 2012
Дата российской премьеры: 29 ноября 2012, «Наше Кино»
Дата выхода DVD релиза: 18 декабря 2012, «Lizard Cinema Trade»
Дата выхода Blu-Ray релиза: 15 января 2013, «Lizard Cinema Trade»

Качество видео: DVD9 (R5)
Видео: MPEG-2, [email protected] (PAL 16:9), ~5700 kbps, Bit/Pixel: 0.553
Аудио 1: AC3 5.1, 448 kbps [Русский]
Аудио 2: AC3 2.0, 192 kbps [Русский]
Аудио 3: DTS 5.1, 755 kbps [Русский]

Дополнительные материалы...

Отсутствуют

DVDInfo…

Title: Джунгли.(2012).DVD9
Size: 4.52 Gb ( 4 736 558 KBytes ) - DVD-9
Enabled regions: 1, 2, 3, 4, 5, 6, 7, 8
VTS_01 :
Play Length: 00:00:25
Video: PAL 4:3 (720x576) VBR
Audio:
Russian (Dolby AC3, 6 ch)
English (Dolby AC3, 6 ch)
English (Dolby AC3, 6 ch)
VTS_02 :
Play Length: 01:20:02
Video: PAL 16:9 (720x576) VBR, Auto Pan&Scan, Auto Letterboxed
Audio:
Russian (Dolby AC3, 6 ch)
Russian (Dolby AC3, 2 ch)
Russian (DTS, 5 ch)

MediaInfo...

Полное имя : D:\Джунгли.(2012).DVD9\VIDEO_TS\VTS_02_1.VOB
Формат : MPEG-PS
Размер файла : 1024 Мбайт
Продолжительность : 19 м.
Режим общего битрейта : Переменный
Общий поток : 7274 Кбит/сек
Видео
Идентификатор : 224 (0xE0)
Формат : MPEG Video
Версия формата : Version 2
Профиль формата : [email protected]
Параметр BVOP формата : Да
Параметр матрицы формата : Выборочная
Продолжительность : 19 м.
Вид битрейта : Переменный
Битрейт : 5735 Кбит/сек
Максимальный битрейт : 8000 Кбит/сек
Ширина : 720 пикселей
Высота : 576 пикселей
Соотношение сторон : 16:9
Частота кадров : 25,000 кадров/сек
Стандарт вещания : PAL
Цветовое пространство : YUV
Субдискретизация насыщенности : 4:2:0
Битовая глубина : 8 бит
Тип развёртки : Прогрессивная
Метод сжатия : С потерями
Бит/(Пиксели*Кадры) : 0.553
Размер потока : 807 Мбайт (79%)
Аудио #1
Идентификатор : 189 (0xBD)-128 (0x80)
Формат : AC-3
Формат/Информация : Audio Coding 3
Расширение режима : CM (complete main)
Параметр Endianness формата : Big
Режим смешивания : DVD-Video
Продолжительность : 19 м.
Вид битрейта : Постоянный
Битрейт : 448 Кбит/сек
Каналы : 6 каналов
Расположение каналов : Front: L C R, Side: L R, LFE
Частота : 48,0 КГц
Битовая глубина : 16 бит
Метод сжатия : С потерями
Размер потока : 63,1 Мбайт (6%)
Аудио #2
Идентификатор : 189 (0xBD)-129 (0x81)
Формат : AC-3
Формат/Информация : Audio Coding 3
Расширение режима : CM (complete main)
Параметр Endianness формата : Big
Режим смешивания : DVD-Video
Продолжительность : 19 м.
Вид битрейта : Постоянный
Битрейт : 192 Кбит/сек
Каналы : 2 канала
Расположение каналов : Front: L R
Частота : 48,0 КГц
Битовая глубина : 16 бит
Метод сжатия : С потерями
Размер потока : 27,0 Мбайт (3%)
Аудио #3
Идентификатор : 189 (0xBD)-138 (0x8A)
Формат : DTS
Формат/Информация : Digital Theater Systems
Режим смешивания : DVD-Video
Продолжительность : 19 м.
Вид битрейта : Постоянный
Битрейт : 755 Кбит/сек
Каналы : 6 каналов
Расположение каналов : Front: L C R, Side: L R, LFE
Частота : 48,0 КГц
Битовая глубина : 24 бит
Метод сжатия : С потерями
Размер потока : 106 Мбайт (10%)
Меню

Скриншоты меню...

     

Скриншоты:

       
       
Other forum [Profile] [PM]

doyble

Longevity: 8 years 9 months

Posts: 13

Торрент-статистика

Post 28-Dec-2012 17:46 (after 14 days)

[Quote]

Спасибо большое.
Other forum [Profile] [PM]
Display posts from previous:    
Reply to topic

The time now is: Today 22:28

All times are GMT + 3 Hours



You cannot post new topics in this forum
You cannot reply to topics in this forum
You cannot edit your posts in this forum
You cannot delete your posts in this forum
You cannot vote in polls in this forum
You cannot attach files in this forum
You cannot download files in this forum