Today is a free download without charge Download

Подводный счёт (Выпуск 19) (Мария Визитей) [2012, Тв-ШОУ, SATRip]

Reply to topic
 
Author
Message

Omen ®

Longevity: 9 years

Posts: 181086

Торрент-статистика

Post 14-Dec-2012 11:56

[Quote]

Подводный счёт (Выпуск 19)
Год выпуска: 2012
Страна: Россия
Жанр: Тв-ШОУ
Продолжительность: 00:15:16
Перевод: Не требуется
Режиссер: Мария Визитей
Ведущий: Игорь Письменный, Антон Коршунов, Денис Дворянинов, Полина Пахомова
Описание: Программа «Подводный счёт» обучит самых маленьких зрителей основам математики! В удивительной подводной пещере живет граф Батискаф, который помогает морским обитателям своими бесценными знаниями. За советами к нему часто обращаются бывалый пират Акулий зуб, хитрая колдунья Ламинария и другие обитатели подводного мира. Юные телезрители будут наблюдать за тем, как подводный мудрец, используя свои познания в арифметике, разрешает споры морских жителей. Граф Батискаф в игровой форме разъясняет героям программы и зрителям главные математические правила. Программа предназначена детям 3-7 лет. Она развивает у зрителей логику, сложные мыслительные процессы и формирует базовые математические знания. Программа поможет легко научить ребенка счёту, подготовить его к успешному обучению в школе.
Качество: SATRip
Формат: AVI
Видео кодек: XviD
Аудио кодек: MP3
Видео: XviD, 1754 Кбит/с, 704x528, 25 fps
Аудио: MP3, 128kbps, 2ch, 48kHz

MI

ОбщееПолное имя : E:\Downloads\55\Karusel.Podvodnyj.schet.(19.vypusk).2012.XviD.SATRip.aviФормат : AVIФормат/Информация : Audio Video InterleaveРазмер файла : 209 МбайтПродолжительность : 15 м.Общий поток : 1892 Кбит/секПрограмма кодирования : VirtualDubMod 1.5.10.2 (build 2540/release)Библиотека кодирования : VirtualDubMod build 2540/release
ВидеоИдентификатор : 0Формат : MPEG-4 VisualПрофиль формата : Advanced [email protected]Параметр BVOP формата : 2Параметр QPel формата : НетПараметр GMC формата : Без точки переходаПараметр матрицы формата : Default (H.263)Режим смешивания : Сжатый битовый потокИдентификатор кодека : XVIDИдентификатор кодека/Подсказка : XviDПродолжительность : 15 м.Битрейт : 1754 Кбит/секШирина : 704 пикс.Высота : 528 пикс.Соотношение сторон : 4:3Частота кадров : 25,000 кадр/секЦветовое пространство : YUVПодвыборка цветности : 4:2:0Битовая глубина : 8 битТип развёртки : ПрогрессивнаяМетод сжатия : С потерямиБит/(Пиксели*Кадры) : 0.189Размер потока : 194 Мбайт (93%)Библиотека кодирования : XviD 64
АудиоИдентификатор : 1Формат : MPEG AudioВерсия формата : Version 1Профиль формата : Layer 3Режим : Joint stereoРасширение режима : MS StereoИдентификатор кодека : 55Идентификатор кодека/Подсказка : MP3Продолжительность : 15 м.Вид битрейта : ПостоянныйБитрейт : 128 Кбит/секКаналы : 2 каналаЧастота : 48,0 КГцМетод сжатия : С потерямиРазмер потока : 14,2 Мбайт (7%)Выравнивание : Соединение по промежуткамПродолжительность промежутка : 40 мс. (1,00 видеокадр)Время предзагрузки промежутка : 504 ms

Скриншоты

Other forum [Profile] [PM]

Dracula

Longevity: 8 years 1 month

Posts: 11068

Торрент-статистика

Post 10-Dec-2013 20:28 (after 11 months 27 days)

Топик был перенесен из форума Обучающее видео в форум Развлекательные телепередачи и шоу, приколы и юмор


kogesan
 
Display posts from previous:    
Reply to topic

The time now is: Today 05:04

All times are GMT + 3 Hours



You cannot post new topics in this forum
You cannot reply to topics in this forum
You cannot edit your posts in this forum
You cannot delete your posts in this forum
You cannot vote in polls in this forum
You cannot attach files in this forum
You cannot download files in this forum