Today is a free download without charge Download

Возмездие / Edge of Darkness [ Мартин Кэмпбелл (2010 ) триллер, драма, детектив ]BDRip 720p

Reply to topic
 
Author
Message

Delia ®

Gender:

Longevity: 9 years 6 months

Posts: 1821

Торрент-статистика

Post 11-Apr-2011 23:06

[Quote]

ВозмездиеEdge of Darkness Год выпуска: 2010
Страна:США, Великобритания
Жанр: триллер, драма, детектив
Продолжительность:01:55:53
Перевод: Профессиональный (полное дублирование)
Режиссер: Мартин Кэмпбелл
Продюссер:Тим Хэдингтон, Грэм Кинг, Майкл Веаринг
Сценарий: Фил Мейхью
Бюджет:$80 000 000
Премьера в мире: 28 января 2010
В ролях: Мел Гибсон, Рэй Уинстон, Джей О. Сандерс, Бояна Новакович, Дэнни Хьюстон, Дэвид Аарон Бейкер, Гбенга Аккинагбе, Фрэнк Грилло, Уэйн ДюВолл, Том Кемп, Дениз О'Харе, Дженнифер Николь Портер, Фрэнк Ридли, Шон Робертс, Катерина Скорсоне и др.
Описание:Детектив полицейский Томас Крейвен переживает не лучшие времена. Его единственная дочь была жестоко убита. Как выяснилось впоследствии, ее смерть совсем не была случайна. В этом деле замешана коррумпированная система власти. Томас не успокоится, пока все виновные в смерти его дочери не будут наказаны. Жажда возмездия переполняет его душу, Томаса нельзя не понять.
Качество: BDRip 720p
Формат: MKV
Видео кодек:x.264
Аудио кодек:AC3
Видео: English, 4394 Кбит/сек, 1280*528 (2,40:1), в 23,976 кадр/сек, AVC ([email protected])
Аудио: Russian, 512 Кбит/сек, 48,0 КГц, 16 бит, 6 канала(ов), AC-3
Аудио:English, 448 Кбит/сек, 48,0 КГц, 16 бит, 6 канала(ов), AC-3
Субтитры:Russian,English SRT

MediaInfo:

Общее
Уникальный идентификатор : 209122029780520138550541982596600403989 (0x9D53701B6DD724CEAA7DE38F9BE79815)
Полное имя : E:\торрент\Edge of Darkness (2010) BDRip 720 p.mkv
Формат : Matroska
Размер файла : 4,37 Гбайт
Продолжительность : 1 ч. 56 м.
Общий поток : 5355 Кбит/сек
Дата кодирования : UTC 2011-04-11 19:23:42
Программа кодирования : mkvmerge v4.6.0 ('Still Crazy After All These Years') built on Mar 10 2011 02:50:32
Библиотека кодирования : libebml v1.2.0 + libmatroska v1.1.0
Видео
Идентификатор : 1
Формат : AVC
Формат/Информация : Advanced Video Codec
Профиль формата : [email protected]
Параметр CABAC формата : Да
Параметр ReFrames формата : 11 кадры
Идентификатор кодека : V_MPEG4/ISO/AVC
Продолжительность : 1 ч. 56 м.
Битрейт : 4394 Кбит/сек
Ширина : 1280 пикс.
Высота : 528 пикс.
Соотношение сторон : 2,40:1
Частота кадров : 23,976 кадр/сек
Цветовое пространство : YUV
Подвыборка цветности : 4:2:0
Битовая глубина : 8 бит
Тип развёртки : Прогрессивная
Бит/(Пиксели*Кадры) : 0.271
Размер потока : 3,50 Гбайт (80%)
Библиотека кодирования : x264 core 114 r1924 08d04a4
Настройки программы : cabac=1 / ref=11 / deblock=1:-2:-2 / analyse=0x3:0x133 / me=umh / subme=7 / psy=1 / psy_rd=1.00:0.15 / mixed_ref=1 / me_range=32 / chroma_me=1 / trellis=2 / 8x8dct=1 / cqm=0 / deadzone=21,11 / fast_pskip=0 / chroma_qp_offset=-3 / threads=6 / sliced_threads=0 / nr=0 / decimate=1 / interlaced=0 / constrained_intra=0 / bframes=5 / b_pyramid=2 / b_adapt=1 / b_bias=0 / direct=1 / weightb=1 / open_gop=0 / weightp=2 / keyint=250 / keyint_min=24 / scenecut=40 / intra_refresh=0 / rc_lookahead=40 / rc=2pass / mbtree=1 / bitrate=4394 / ratetol=1.0 / qcomp=0.60 / qpmin=4 / qpmax=51 / qpstep=4 / cplxblur=20.0 / qblur=0.5 / ip_ratio=1.40 / aq=1:1.00
Язык : English
Аудио #1
Идентификатор : 2
Формат : AC-3
Формат/Информация : Audio Coding 3
Расширение режима : CM (complete main)
Идентификатор кодека : A_AC3
Продолжительность : 1 ч. 56 м.
Вид битрейта : Постоянный
Битрейт : 512 Кбит/сек
Канал(ы) : 6 канала(ов)
Расположение каналов : Front: L C R, Side: L R, LFE
Частота : 48,0 КГц
Битовая глубина : 16 бит
Метод сжатия : С потерями
Размер потока : 428 Мбайт (10%)
Язык : Russian
Аудио #2
Идентификатор : 3
Формат : AC-3
Формат/Информация : Audio Coding 3
Расширение режима : CM (complete main)
Идентификатор кодека : A_AC3
Продолжительность : 1 ч. 56 м.
Вид битрейта : Постоянный
Битрейт : 448 Кбит/сек
Канал(ы) : 6 канала(ов)
Расположение каналов : Front: L C R, Side: L R, LFE
Частота : 48,0 КГц
Битовая глубина : 16 бит
Метод сжатия : С потерями
Размер потока : 374 Мбайт (8%)
Язык : English
Текст #1
Идентификатор : 4
Формат : UTF-8
Идентификатор кодека : S_TEXT/UTF8
Идентификатор кодека/Информация : UTF-8 Plain Text
Язык : Russian
Текст #2
Идентификатор : 5
Формат : UTF-8
Идентификатор кодека : S_TEXT/UTF8
Идентификатор кодека/Информация : UTF-8 Plain Text
Язык : English
Меню
00:00:00.000 : en:00:00:00.000
00:08:33.555 : en:00:08:33.555
00:14:35.333 : en:00:14:35.333
00:22:52.121 : en:00:22:52.121
00:30:19.276 : en:00:30:19.276
00:37:47.223 : en:00:37:47.223
00:43:13.800 : en:00:43:13.800
00:50:31.946 : en:00:50:31.946
00:56:36.685 : en:00:56:36.685
01:01:21.219 : en:01:01:21.219
01:08:29.480 : en:01:08:29.480
01:16:09.482 : en:01:16:09.482
01:23:33.634 : en:01:23:33.634
01:30:47.400 : en:01:30:47.400
01:39:20.496 : en:01:39:20.496
01:46:44.481 : en:01:46:44.481

Скриншоты:

       

_________________
Человек – это канат, натянутый между животным и сверхчеловеком, – канат над пропастью.
В человеке ценно то, что он мост, а не цель. Фридрих Ницше


Last edited by Delia on 2011-08-26 01:09; edited 1 time in total
Other forum [Profile] [PM]
Display posts from previous:    
Reply to topic

The time now is: Today 00:05

All times are GMT + 3 Hours



You cannot post new topics in this forum
You cannot reply to topics in this forum
You cannot edit your posts in this forum
You cannot delete your posts in this forum
You cannot vote in polls in this forum
You cannot attach files in this forum
You cannot download files in this forum