Today is a free download without charge Download

Золото дураков / Fool's Gold (Энди Теннант) [2008 г., мелодрама, комедия, приключения, BDRip 720p]

Reply to topic
 
Author
Message

Delia ®

Gender:

Longevity: 9 years 6 months

Posts: 1821

Торрент-статистика

Post 11-Apr-2011 07:31

[Quote]

Золото дураковFool's Gold
«В любви все средства хороши»
Год выпуска: 2008
Страна: США
Жанр: мелодрама, комедия, приключения
Продолжительность: 01:52:26
Перевод: Профессиональный (полное дублирование)
Режиссер: Энди Теннант
Продюссер: Дональд Де Лайн, Берни Голдманн, Джон Клейн
Сценарий: Джон Клафлин, Дэниэл Зелман, Энди Теннант
Бюджет: $70 000 000
Премьера в мире: 7 февраля 2008
Описание: Бенджамен Финнеган — серфер, опытный ныряльщик и охотник за сокровищами, помешанный на идее отыскать легендарное королевское сокровище короля Испании Филиппа, затонувшего в 1715-м году в море. Когда в его руках оказывается заветная подсказка о местонахождения клада, начинается неслыханная гонка за сокровищами.
Кроме нахождения клада Бену предстоит вернуть любимую жену по имени Тесс , некогда разделявшую его страсть, но уставшую и подавшую на развод, убедить в своей правоте щедрого спонсора в лице Найджела Ханикатта с дочерью Джеммой и… выжить, спасаясь от людей местного криминального босса — Бигга Банни .
Качество: BDRip 720p (Blu-ray Disk 1080р)
Формат: MKV
Видео кодек: H.264
Аудио кодек: AC3
Видео: English, 4541 Кбит/сек, 1280*528 (2,40:1), в 23,976 кадр/сек, AVC
Аудио: Russian, 384 Кбит/сек, 48,0 КГц, 16 бит, 6 канала(ов), AC-3
Аудио:English,640 Кбит/сек, 48,0 КГц, 16 бит, 6 канала(ов), AC-3
Субтитры:Russian, English, VobSub

MediaInfo:

Общее
Уникальный идентификатор : 236702881002723169626220794809086788691 (0xB213510F9EA2F812A1B5B58E91064453)
Полное имя : E:\торрент\Fool's Gold (2008) BDRip 720p.mkv
Формат : Matroska
Размер файла : 4,38 Гбайт
Продолжительность : 1 ч. 52 м.
Общий поток : 5571 Кбит/сек
Дата кодирования : UTC 2011-04-11 03:14:26
Программа кодирования : mkvmerge v4.6.0 ('Still Crazy After All These Years') built on Mar 10 2011 02:50:32
Библиотека кодирования : libebml v1.2.0 + libmatroska v1.1.0
Видео
Идентификатор : 1
Формат : AVC
Формат/Информация : Advanced Video Codec
Профиль формата : [email protected]
Параметр CABAC формата : Да
Параметр ReFrames формата : 10 кадры
Параметры GOP формата : M=6, N=32
Идентификатор кодека : V_MPEG4/ISO/AVC
Продолжительность : 1 ч. 52 м.
Битрейт : 4541 Кбит/сек
Ширина : 1280 пикс.
Высота : 528 пикс.
Соотношение сторон : 2,40:1
Частота кадров : 23,976 кадр/сек
Цветовое пространство : YUV
Подвыборка цветности : 4:2:0
Битовая глубина : 8 бит
Тип развёртки : Прогрессивная
Бит/(Пиксели*Кадры) : 0.280
Размер потока : 3,48 Гбайт (80%)
Библиотека кодирования : x264 core 114 r1924 08d04a4
Настройки программы : cabac=1 / ref=10 / deblock=1:-3:-3 / analyse=0x3:0x133 / me=umh / subme=7 / psy=1 / psy_rd=1.00:0.15 / mixed_ref=1 / me_range=32 / chroma_me=1 / trellis=2 / 8x8dct=1 / cqm=0 / deadzone=21,11 / fast_pskip=0 / chroma_qp_offset=-3 / threads=6 / sliced_threads=0 / nr=0 / decimate=1 / interlaced=0 / constrained_intra=0 / bframes=5 / b_pyramid=2 / b_adapt=1 / b_bias=0 / direct=1 / weightb=0 / open_gop=0 / weightp=2 / keyint=250 / keyint_min=24 / scenecut=40 / intra_refresh=0 / rc_lookahead=40 / rc=2pass / mbtree=1 / bitrate=4541 / ratetol=1.0 / qcomp=0.60 / qpmin=4 / qpmax=51 / qpstep=4 / cplxblur=20.0 / qblur=0.5 / ip_ratio=1.40 / aq=1:1.00
Язык : English
Аудио #1
Идентификатор : 2
Формат : AC-3
Формат/Информация : Audio Coding 3
Расширение режима : CM (complete main)
Идентификатор кодека : A_AC3
Продолжительность : 1 ч. 52 м.
Вид битрейта : Постоянный
Битрейт : 384 Кбит/сек
Канал(ы) : 6 канала(ов)
Расположение каналов : Front: L C R, Side: L R, LFE
Частота : 48,0 КГц
Битовая глубина : 16 бит
Метод сжатия : С потерями
Задержка видео : 13 мс.
Размер потока : 309 Мбайт (7%)
Язык : Russian
Аудио #2
Идентификатор : 3
Формат : AC-3
Формат/Информация : Audio Coding 3
Расширение режима : CM (complete main)
Идентификатор кодека : A_AC3
Продолжительность : 1 ч. 52 м.
Вид битрейта : Постоянный
Битрейт : 640 Кбит/сек
Канал(ы) : 6 канала(ов)
Расположение каналов : Front: L C R, Side: L R, LFE
Частота : 48,0 КГц
Битовая глубина : 16 бит
Метод сжатия : С потерями
Задержка видео : 13 мс.
Размер потока : 515 Мбайт (11%)
Язык : English
Текст #1
Идентификатор : 4
Формат : VobSub
Режим смешивания : zlib
Идентификатор кодека : S_VOBSUB
Идентификатор кодека/Информация : The same subtitle format used on DVDs
Язык : Russian
Текст #2
Идентификатор : 5
Формат : VobSub
Режим смешивания : zlib
Идентификатор кодека : S_VOBSUB
Идентификатор кодека/Информация : The same subtitle format used on DVDs
Язык : English
Меню
00:00:00.000 : en:00:00:00.000
00:06:51.411 : en:00:06:51.411
00:09:28.902 : en:00:09:28.902
00:15:07.573 : en:00:15:07.573
00:21:36.128 : en:00:21:36.128
00:25:33.365 : en:00:25:33.365
00:30:55.520 : en:00:30:55.520
00:35:23.788 : en:00:35:23.788
00:38:57.835 : en:00:38:57.835
00:47:10.995 : en:00:47:10.995
00:51:34.425 : en:00:51:34.425
00:56:03.026 : en:00:56:03.026
01:00:26.122 : en:01:00:26.122
01:02:48.598 : en:01:02:48.598
01:08:26.936 : en:01:08:26.936
01:13:28.237 : en:01:13:28.237
01:18:46.221 : en:01:18:46.221
01:25:29.291 : en:01:25:29.291
01:28:26.134 : en:01:28:26.134
01:32:18.700 : en:01:32:18.700
01:36:29.617 : en:01:36:29.617
01:39:50.484 : en:01:39:50.484
01:43:28.369 : en:01:43:28.369
01:46:46.066 : en:01:46:46.066
01:48:05.479 : en:01:48:05.479

Скриншоты

     [

_________________
Человек – это канат, натянутый между животным и сверхчеловеком, – канат над пропастью.
В человеке ценно то, что он мост, а не цель. Фридрих Ницше


Last edited by Delia on 2011-08-26 01:05; edited 1 time in total
Other forum [Profile] [PM]
Similar theme
Forum Topic Author Torrent Replies Last Post
./templates/default/images/folder_dl.gif Обучающее видео Криптовалюты. Золото цифрового века. Bitcoin. Биткоин. [2015, WEBRip, RUS] (Познавательное) Omen
1 | 0

0 | 1704

12

2015-10-22 00:00
Omen Latest
Display posts from previous:    
Reply to topic

The time now is: Today 09:40

All times are GMT + 3 Hours



You cannot post new topics in this forum
You cannot reply to topics in this forum
You cannot edit your posts in this forum
You cannot delete your posts in this forum
You cannot vote in polls in this forum
You cannot attach files in this forum
You cannot download files in this forum