Today is a free download without charge Download

Инцидент Синдзюку / Shinjuku Incident / San suk si gin (Тун-Шин Йи / Tung-Shing Yee)[2012 , Триллер, Драма, Криминал, BDrip] 1080p

Reply to topic
 
Author
Message

DeadMmau5 ®

Gender:

Longevity: 8 years 6 months

Posts: 155

Location: Поскот

Торрент-статистика

Post 11-Dec-2012 15:07

[Quote]

Инцидент Синдзюку Shinjuku Incident / San suk si gin«They destroyed his life... Now he'll destroy them all.»Год выхода: 2009
Жанр: Триллер, Драма, Криминал
Режиссер: Тун-Шин Йи / Tung-Shing Yee
В ролях: Джеки Чан, Наото Такэнака, Дэниэл Ву, Сюй Цзинлэй, Масая Като, Тору Минегиши, Джек Као, Кеня Савада, Хироюки Нагато, Ясуаки Курата...
О фильме:
События фильма происходят в 1990-х годах и рассказывают о жизни двух китайских иммигрантов, живущих в Токио.

Страна: Гонконг, Китай
Продолжительность: 01:56:30
Перевод: Авторский (одноголосый закадровый) (Ю.Сербин)
Файл
Кодек: H264
Качество: BDRip 1080p
Видео: 1920x816, 6528 Kbps, 23,976 fps
Звук: 48 kHz, AC3, 6c, 448 kbps
Субтитры: Русские, английские
Семпл

MI

Общее
Уникальный идентификатор : 220219396242574870661130934555604532163 (0xA5ACB684463700ACAE7BC8A5F295BBC3)
Формат : Matroska
Версия формата : Version 2
Размер файла : 5,77 Гбайт
Продолжительность : 1 ч. 56 м.
Общий поток : 7086 Кбит/сек
Название фильма : San suk si gin / Shinjuku Incident (2009) BDRip 1080p от Dimok
Дата кодирования : UTC 2012-12-10 17:17:00
Программа кодирования : mkvmerge v5.8.0 ('No Sleep / Pillow') built on Sep 2 2012 15:37:04
Библиотека кодирования : libebml v1.2.3 + libmatroska v1.3.0
Видео
Идентификатор : 1
Формат : AVC
Формат/Информация : Advanced Video Codec
Профиль формата : [email protected]
Параметр CABAC формата : Да
Параметр ReFrames формата : 5 кадров
Идентификатор кодека : V_MPEG4/ISO/AVC
Продолжительность : 1 ч. 56 м.
Битрейт : 6528 Кбит/сек
Ширина : 1920 пикселей
Высота : 816 пикселей
Соотношение сторон : 2,35:1
Режим частоты кадров : Постоянный
Частота кадров : 23,976 кадра/сек
Цветовое пространство : YUV
Субдискретизация насыщенности : 4:2:0
Битовая глубина : 8 бит
Тип развёртки : Прогрессивная
Бит/(Пиксели*Кадры) : 0.174
Размер потока : 5,29 Гбайт (92%)
Библиотека кодирования : x264 core 129 r2230 1cffe9f
Настройки программы : cabac=1 / ref=5 / deblock=1:0:0 / analyse=0x3:0x133 / me=umh / subme=10 / psy=1 / psy_rd=1.00:0.10 / mixed_ref=1 / me_range=32 / chroma_me=1 / trellis=2 / 8x8dct=1 / cqm=0 / deadzone=21,11 / fast_pskip=0 / chroma_qp_offset=-3 / threads=6 / lookahead_threads=1 / sliced_threads=0 / nr=0 / decimate=1 / interlaced=0 / bluray_compat=0 / constrained_intra=0 / bframes=6 / b_pyramid=2 / b_adapt=2 / b_bias=0 / direct=3 / weightb=1 / open_gop=0 / weightp=2 / keyint=240 / keyint_min=24 / scenecut=40 / intra_refresh=0 / rc_lookahead=66 / rc=2pass / mbtree=1 / bitrate=6528 / ratetol=1.0 / qcomp=0.71 / qpmin=0 / qpmax=69 / qpstep=4 / cplxblur=20.0 / qblur=0.5 / ip_ratio=1.40 / aq=1:1.00
Язык : English
Default : Да
Forced : Нет
Аудио
Идентификатор : 2
Формат : AC-3
Формат/Информация : Audio Coding 3
Расширение режима : CM (complete main)
Параметр Endianness формата : Big
Идентификатор кодека : A_AC3
Продолжительность : 1 ч. 56 м.
Вид битрейта : Постоянный
Битрейт : 448 Кбит/сек
Каналы : 6 каналов
Расположение каналов : Front: L C R, Side: L R, LFE
Частота : 48,0 КГц
Битовая глубина : 16 бит
Метод сжатия : С потерями
Размер потока : 373 Мбайт (6%)
Заголовок : Одноголосный ( Ю.Сербин )
Язык : Russian
Default : Да
Forced : Нет
Текст #1
Идентификатор : 3
Формат : UTF-8
Идентификатор кодека : S_TEXT/UTF8
Идентификатор кодека/Информация : UTF-8 Plain Text
Язык : Russian
Default : Да
Forced : Нет
Текст #2
Идентификатор : 4
Формат : UTF-8
Идентификатор кодека : S_TEXT/UTF8
Идентификатор кодека/Информация : UTF-8 Plain Text
Язык : English
Default : Нет
Forced : Нет
Меню
00:00:00.000 : en:00:00:00.000
00:06:20.208 : en:00:06:20.208
00:11:55.958 : en:00:11:55.958
00:17:51.333 : en:00:17:51.333
00:22:28.125 : en:00:22:28.125
00:29:29.583 : en:00:29:29.583
00:34:21.583 : en:00:34:21.583
00:41:57.542 : en:00:41:57.542
00:47:46.458 : en:00:47:46.458
00:54:22.542 : en:00:54:22.542
01:00:44.875 : en:01:00:44.875
01:06:20.917 : en:01:06:20.917
01:13:12.458 : en:01:13:12.458
01:17:12.250 : en:01:17:12.250
01:23:25.167 : en:01:23:25.167
01:30:28.333 : en:01:30:28.333
01:36:00.583 : en:01:36:00.583
01:41:07.167 : en:01:41:07.167
01:48:48.958 : en:01:48:48.958
01:51:44.417 : en:01:51:44.417
     

_________________
Other forum [Profile] [PM]
Display posts from previous:    
Reply to topic

The time now is: Today 05:22

All times are GMT + 3 Hours



You cannot post new topics in this forum
You cannot reply to topics in this forum
You cannot edit your posts in this forum
You cannot delete your posts in this forum
You cannot vote in polls in this forum
You cannot attach files in this forum
You cannot download files in this forum