Today is a free download without charge Download

Queen - Rock Montreal / 1981 /2007 / BDRip 720p

Reply to topic
 
Author
Message

Delia ®

Gender:

Longevity: 10 years

Posts: 1821

Торрент-статистика

Post 09-Apr-2011 13:34

[Quote]

Queen - Rock Montreal Год выпуска: 1981
Жанр: Концерт| Rock
Продолжительность:01:35:10
Перевод: не требуется
Режиссер: Соул Свиммер
Описание:Сразу вскоре после ошеломительного тура Queen по Южной Америке (бьющего все мировые рекорды на тот момент), группа отыграла два концерта в Монреале (24 и 25 ноября 1981 года). Из всех концертов, которые дали Queen в 1981 году, только эти два были сняты на кинопленку. На самом деле, Queen были первой группой, которая сняла ВЕСЬ концерт на кинопленку 35 миллиметров.
Для издания на Blu-Ray фильм был оцифрован и восстановлен с оригинальной 35 миллиметровой пленки в 2007 году.
Качество:BDRip 720p(источник Blu-ray 1080p)
Формат: MKV
Видео кодек: H.264
Аудио кодек: AC3
Видео: English, 5937 Кбит/сек, 1280*720 (16:9), в 23,976 кадр/сек, AVC ([email protected])
Аудио: English, 640 Кбит/сек, 48,0 КГц, 16 бит, 6 канала(ов), AC-3

Треклист:

01. Intro
02. We Will Rock You (fast)
03. Let Me Entertain You
04. Play The Game
05. Somebody To Love
06. Killer Queen
07. I'm In Love With My Car
08. Get Down Make Love
09. Save Me
10. Now I'm Here
11. Dragon Attack
12. Now I'm Here (reprise)
13. Love Of My Life
14. Under Pressure
15. Keep Yourself Alive
16. Drum & Timpani Solo
17. Guitar Solo
18. Crazy Little Thing Called Love
19. Jailhouse Rock
20. Bohemian Rhapsody
21. Tie Your Mother Down
22. Another One Bites The Dust
23. Sheer Heart Attack
24. We Will Rock You
25. We Are The Champions
26. God Save The Queen

Состав группы:

- Фредди Меркьюри (Freddie Mercury, 1946—1991) Настоящее имя Фаррух Булсара (Farrokh Bulsara) — фортепиано, вокал, гитара. Автор песен «Killer Queen», «Bohemian Rhapsody», «Somebody to Love», «We Are the Champions», «Crazy Little Thing Called Love», «Innuendo» и др.
- Брайан Мэй (Brian May, 1947) — гитары. Автор песен «We Will Rock You», «Tie Your Mother Down», «Who Wants to Live Forever», «Hammer to Fall», «I Want It All», «The Show Must Go On» и др.
- Джон Дикон (John Deacon, 1951) — бас-гитара, ритм-гитара. Автор песен «You're My Best Friend», «Another One Bites the Dust», «I Want to Break Free», «One Year of Love» и др.
- Роджер Тэйлор (Roger Taylor, 1949) — ударные. Автор песен «Radio Ga Ga», «Heaven for Everyone», «A Kind of Magic», «These Are the Days of Our Lives» и др.

Media Info:

Общее
Уникальный идентификатор : 228467220331703586158958138879771283948 (0xABE12FA3E83A1C6D81AE4A27173A11EC)
Полное имя : E:\торрент\Queen - Rock Montreal (1981) BDRip 720p.mkv
Формат : Matroska
Размер файла : 4,37 Гбайт
Продолжительность : 1 ч. 35 м.
Общий поток : 6579 Кбит/сек
Дата кодирования : UTC 2011-04-09 06:03:49
Программа кодирования : mkvmerge v4.6.0 ('Still Crazy After All These Years') built on Mar 10 2011 02:50:32
Библиотека кодирования : libebml v1.2.0 + libmatroska v1.1.0
Видео
Идентификатор : 1
Формат : AVC
Формат/Информация : Advanced Video Codec
Профиль формата : [email protected]
Параметр CABAC формата : Да
Параметр ReFrames формата : 8 кадры
Идентификатор кодека : V_MPEG4/ISO/AVC
Продолжительность : 1 ч. 35 м.
Битрейт : 5937 Кбит/сек
Ширина : 1280 пикс.
Высота : 720 пикс.
Соотношение сторон : 16:9
Частота кадров : 23,976 кадр/сек
Цветовое пространство : YUV
Подвыборка цветности : 4:2:0
Битовая глубина : 8 бит
Тип развёртки : Прогрессивная
Бит/(Пиксели*Кадры) : 0.269
Размер потока : 3,86 Гбайт (88%)
Библиотека кодирования : x264 core 114 r1924 08d04a4
Настройки программы : cabac=1 / ref=8 / deblock=1:-3:-3 / analyse=0x3:0x133 / me=umh / subme=7 / psy=1 / psy_rd=1.00:0.15 / mixed_ref=1 / me_range=32 / chroma_me=1 / trellis=2 / 8x8dct=1 / cqm=0 / deadzone=21,11 / fast_pskip=0 / chroma_qp_offset=-3 / threads=6 / sliced_threads=0 / nr=0 / decimate=1 / interlaced=0 / constrained_intra=0 / bframes=4 / b_pyramid=2 / b_adapt=1 / b_bias=0 / direct=1 / weightb=1 / open_gop=0 / weightp=2 / keyint=250 / keyint_min=24 / scenecut=40 / intra_refresh=0 / rc_lookahead=40 / rc=2pass / mbtree=1 / bitrate=5937 / ratetol=1.0 / qcomp=0.60 / qpmin=0 / qpmax=51 / qpstep=4 / cplxblur=20.0 / qblur=0.5 / ip_ratio=1.40 / aq=1:1.00
Язык : English
Аудио
Идентификатор : 2
Формат : AC-3
Формат/Информация : Audio Coding 3
Расширение режима : CM (complete main)
Идентификатор кодека : A_AC3
Продолжительность : 1 ч. 35 м.
Вид битрейта : Постоянный
Битрейт : 640 Кбит/сек
Канал(ы) : 6 канала(ов)
Расположение каналов : Front: L C R, Side: L R, LFE
Частота : 48,0 КГц
Битовая глубина : 16 бит
Метод сжатия : С потерями
Размер потока : 436 Мбайт (10%)
Язык : English
Меню
00:00:00.000 : en:00:00:00.000
00:02:04.791 : en:00:02:04.791
00:05:11.102 : en:00:05:11.102
00:08:14.452 : en:00:08:14.452
00:12:08.978 : en:00:12:08.978
00:19:47.937 : en:00:19:47.937
00:21:48.724 : en:00:21:48.724
00:23:51.764 : en:00:23:51.764
00:28:45.432 : en:00:28:45.432
00:32:53.138 : en:00:32:53.138
00:38:23.426 : en:00:38:23.426
00:41:38.579 : en:00:41:38.579
00:43:39.575 : en:00:43:39.575
00:47:24.675 : en:00:47:24.675
00:51:06.981 : en:00:51:06.981
00:54:40.235 : en:00:54:40.235
00:57:42.334 : en:00:57:42.334
01:03:06.366 : en:01:03:06.366
01:07:23.456 : en:01:07:23.456
01:10:09.914 : en:01:10:09.914
01:15:40.911 : en:01:15:40.911
01:19:29.848 : en:01:19:29.848
01:23:32.007 : en:01:23:32.007
01:27:26.992 : en:01:27:26.992
01:29:38.123 : en:01:29:38.123
01:33:04.162 : en:01:33:04.162

Скриншоты

          

_________________
Человек – это канат, натянутый между животным и сверхчеловеком, – канат над пропастью.
В человеке ценно то, что он мост, а не цель. Фридрих Ницше


Last edited by Delia on 2011-08-20 21:09; edited 2 times in total
Other forum [Profile] [PM]
Display posts from previous:    
Reply to topic

The time now is: Today 05:56

All times are GMT + 3 Hours



You cannot post new topics in this forum
You cannot reply to topics in this forum
You cannot edit your posts in this forum
You cannot delete your posts in this forum
You cannot vote in polls in this forum
You cannot attach files in this forum
You cannot download files in this forum