Today is a free download without charge Download

Дюна / Dune (Дэвид Линч) [1984 г., фантастика, боевик, приключения, BDRip 720p]

Reply to topic
 
Author
Message

Delia ®

Gender:

Longevity: 9 years 6 months

Posts: 1821

Торрент-статистика

Post 08-Apr-2011 11:17

[Quote]

ДюнаDune Год выпуска: 1984
Страна: США
Жанр: фантастика, боевик, приключения
Продолжительность: 02:16:33
Перевод: Профессиональный (многоголосый, закадровый)
Режиссер: Дэвид Линч
Продюссер: Дино Де Лаурентис, Раффаэлла Де Лаурентис, Хосе Лопес Родеро
Сценарий: Фрэнк Герберт, Дэвид Линч
Бюджет: $40 000 000
Премьера в мире: 14 декабря 1984
В ролях: Франческа Аннис, Леонардо Чимино, Брэд Дуриф, Хосе Феррер, Линда Хант, Фредди Джонс, Ричард Джордан, Кайл МакЛахлан, Вирджиния Мэдсен, Сильвана Мангано
Описание: Планета Арракис, также известная под названием Дюна, год 10991. Это арена борьбы между злом и благородством, мир тончайших и опаснейших интриг. Гигантские песчаные черви длиной в целую милю сторожат бесценное сокровище — меланжевую пряность, позволяющую путешествовать сквозь Пространство и Время. Тот, кто контролирует пряность, контролирует Вселенную. Народ Дюны ожидает пришествия Мессии, который поведет их на священную войну против династии злобных Харконненов. И Мессия является. Им становится юный Пол Атрейдес, сын герцога Лито, предательски убитого Харконненами с одобрения Императора. Полу предстоит великая миссия, которая навсегда изменит судьбу всей галактической империи…
Качество:BDRip 720p
Формат: MKV
Видео кодек: H.26x
Аудио кодек: AC3
Видео: English, 4134 Кбит/сек, 1280*544 (2,35:1), в 23,976 кадр/сек, AVC
Аудио: Russian, 448 Кбит/сек, 48,0 КГц, 16 бит, 6 канала(ов), AC-3
Субтитры:Russian, English, VobSub

Отдельно на народ.ру

Авторский одноголосый (Гаврилов)320 Кбит/сек, 48,0 КГц, 16 бит, 6 канала(ов), AC-3
Авторский одноголосый (Михалев)320 Кбит/сек, 48,0 КГц, 16 бит, 6 канала(ов), AC-3
английский320 Кбит/сек, 48,0 КГц, 16 бит, 6 канала(ов), AC-3

Media Info:

Общее
Уникальный идентификатор : 196950302545998845118027978709701923733 (0x942B3F9F33277363951C652B09469395)
Полное имя : E:\торрент\Dune (1984) BDRip 720p.mkv
Формат : Matroska
Размер файла : 4,38 Гбайт
Продолжительность : 2 ч. 16 м.
Общий поток : 4587 Кбит/сек
Дата кодирования : UTC 2011-04-08 06:50:35
Программа кодирования : mkvmerge v4.6.0 ('Still Crazy After All These Years') built on Mar 10 2011 02:50:32
Библиотека кодирования : libebml v1.2.0 + libmatroska v1.1.0
Видео
Идентификатор : 1
Формат : AVC
Формат/Информация : Advanced Video Codec
Профиль формата : [email protected]
Параметр CABAC формата : Да
Параметр ReFrames формата : 12 кадры
Идентификатор кодека : V_MPEG4/ISO/AVC
Продолжительность : 2 ч. 16 м.
Битрейт : 4134 Кбит/сек
Ширина : 1280 пикс.
Высота : 544 пикс.
Соотношение сторон : 2,35:1
Частота кадров : 23,976 кадр/сек
Цветовое пространство : YUV
Подвыборка цветности : 4:2:0
Битовая глубина : 8 бит
Тип развёртки : Прогрессивная
Бит/(Пиксели*Кадры) : 0.248
Размер потока : 3,86 Гбайт (88%)
Библиотека кодирования : x264 core 114 r1924 08d04a4
Настройки программы : cabac=1 / ref=12 / deblock=1:-2:-2 / analyse=0x3:0x133 / me=umh / subme=7 / psy=1 / psy_rd=1.00:0.15 / mixed_ref=1 / me_range=32 / chroma_me=1 / trellis=2 / 8x8dct=1 / cqm=0 / deadzone=21,11 / fast_pskip=0 / chroma_qp_offset=-3 / threads=6 / sliced_threads=0 / nr=0 / decimate=1 / interlaced=0 / constrained_intra=0 / bframes=5 / b_pyramid=2 / b_adapt=1 / b_bias=0 / direct=1 / weightb=1 / open_gop=0 / weightp=2 / keyint=250 / keyint_min=24 / scenecut=40 / intra_refresh=0 / rc_lookahead=40 / rc=2pass / mbtree=1 / bitrate=4134 / ratetol=1.0 / qcomp=0.60 / qpmin=0 / qpmax=69 / qpstep=4 / cplxblur=20.0 / qblur=0.5 / ip_ratio=1.40 / aq=1:1.00
Язык : English
Аудио
Идентификатор : 2
Формат : AC-3
Формат/Информация : Audio Coding 3
Расширение режима : CM (complete main)
Идентификатор кодека : A_AC3
Продолжительность : 2 ч. 16 м.
Вид битрейта : Постоянный
Битрейт : 448 Кбит/сек
Канал(ы) : 6 канала(ов)
Расположение каналов : Front: L C R, Side: L R, LFE
Частота : 48,0 КГц
Битовая глубина : 16 бит
Метод сжатия : С потерями
Размер потока : 438 Мбайт (10%)
Язык : Russian
Текст #1
Идентификатор : 3
Формат : VobSub
Режим смешивания : zlib
Идентификатор кодека : S_VOBSUB
Идентификатор кодека/Информация : The same subtitle format used on DVDs
Язык : Russian
Текст #2
Идентификатор : 4
Формат : VobSub
Режим смешивания : zlib
Идентификатор кодека : S_VOBSUB
Идентификатор кодека/Информация : The same subtitle format used on DVDs
Язык : English
Меню
00:00:00.000 : en:00:00:00.000
00:05:38.504 : en:00:05:38.504
00:10:36.302 : en:00:10:36.302
00:30:31.704 : en:00:30:31.704
00:49:55.409 : en:00:49:55.409
01:05:07.278 : en:01:05:07.278
01:25:45.306 : en:01:25:45.306
01:37:31.971 : en:01:37:31.971
01:41:20.741 : en:01:41:20.741
01:45:08.510 : en:01:45:08.510
01:49:46.246 : en:01:49:46.246
01:56:56.551 : en:01:56:56.551
02:02:19.165 : en:02:02:19.165
02:05:37.529 : en:02:05:37.529
02:06:50.477 : en:02:06:50.477
02:10:51.385 : en:02:10:51.385

Скриншоты

       

_________________
Человек – это канат, натянутый между животным и сверхчеловеком, – канат над пропастью.
В человеке ценно то, что он мост, а не цель. Фридрих Ницше


Last edited by Delia on 2011-08-26 01:00; edited 1 time in total
Other forum [Profile] [PM]
Display posts from previous:    
Reply to topic

The time now is: Today 12:15

All times are GMT + 3 Hours



You cannot post new topics in this forum
You cannot reply to topics in this forum
You cannot edit your posts in this forum
You cannot delete your posts in this forum
You cannot vote in polls in this forum
You cannot attach files in this forum
You cannot download files in this forum