Today is a free download without charge Download

Джунгли зовут! В поисках Марсупилами / Sur la piste du Marsupilami (Ален Шаба) [2012.., Россия, Комедия, приключения, семейный, DVD9]

Reply to topic
 
Author
Message

Meshanik ®

Gender:

Longevity: 8 years 10 months

Posts: 3866

Location: Los Angeles

Торрент-статистика

Post 09-Dec-2012 16:03

[Quote]

Джунгли зовут! В поисках Марсупилами / Sur la piste du Marsupilami- Русское название: Джунгли зовут! В поисках Марсупилами
Оригинальное название: Sur la piste du Marsupilami
Год выпуска: 2012
Производство: Scope Pictures / TF1 Films Production / Région Wallone / Chez Wam / Canal+ [fr] / Path [Франция, Бельгия]
Жанр: Комедия, приключения, семейный
Продолжительность: 01:39:17
Перевод: Дублированный [лицензия]
Субтитры: нет
Режиссер: Ален Шаба
Продюсер: Амандин Било, Ален Шаба, Кристин Руксель
Актеры: Жамель Деббуз, Ален Шаба, Фред Тесто, Ламбер Вильсон, Жеральдин Накаш, Лия Кебеде, Патрик Тимси, Жак Вебер, Айсса Майга, Далип Синх
Описание фильма:
Cпасти карьеру некогда знаменитого телеведущего Дэна Джеральдо может лишь одно — сенсация. В поисках жареных фактов журналист отправляется в таинственную страну Паломбию. С помощью неутомимого местного авантюриста Паблито он выходит на след самого загадочного существа на Земле — рыжего и пушистого, сумчатого и хвостатого зверя Марсупилами. Обаятельнейшее животное каким-то непостижимым образом связано с тайной вечной молодости, и на него объявлена настоящая охота. Путешественникам придется спасти Марсупилами от безумных ученых, грозных военных, алчных браконьеров и прочих напастей, которые таят джунгли.
Дата мировой премьеры: 4 апреля 2012
Дата российской премьеры: 2 августа 2012, «Вольга»
Дата выхода DVD релиза: 6 сентября 2012, «Вольга»

Качество видео: DVD9
Видео: MPEG-2, [email protected] (PAL 16:9), ~7300 kbps, Bit/Pixel: 0.704
Аудио 1: AC3 5.1, 256 kbps [Русский - дублированный]
Аудио 2: DTS 5.1, 755 kbps [Русский - дублированный]

Дополнительные материалы...

Отсутствуют

DVDInfo…

Title: Джунгли.зовут!.В.поисках.Марсупилами-Sur.la.piste.du.Marsupilami.(2012).DVD9
Size: 6.12 Gb ( 6 421 120 KBytes ) - DVD-9
Enabled regions: 1, 2, 3, 4, 5, 6, 7, 8
VTS_01 :
Play Length: 00:00:10
Video: PAL 16:9 (720x576) VBR, Auto Pan&Scan, Auto Letterboxed
VTS_02 :
Play Length: 00:00:06
Video: PAL 16:9 (720x576) VBR, Auto Pan&Scan, Auto Letterboxed
VTS_03 :
Play Length: 01:39:17
Video: PAL 16:9 (720x576) VBR, Auto Pan&Scan, Auto Letterboxed
Audio:
Not specified (Dolby AC3, 6 ch)
Not specified (DTS, 6 ch)

MediaInfo...

Полное имя : D:\Джунгли.зовут!.В.поисках.Марсупилами-Sur.la.piste.du.Marsupilami.(2012).DVD9\VIDEO_TS\VTS_03_2.VOB
Формат : MPEG-PS
Размер файла : 1024 Мбайт
Продолжительность : 16 м.
Режим общего битрейта : Переменный
Общий поток : 8481 Кбит/сек
Видео
Идентификатор : 224 (0xE0)
Формат : MPEG Video
Версия формата : Version 2
Профиль формата : [email protected]
Параметр BVOP формата : Да
Параметр матрицы формата : Выборочная
Параметр GOP формата : M=3, N=15
Продолжительность : 16 м.
Вид битрейта : Переменный
Битрейт : 7301 Кбит/сек
Максимальный битрейт : 8400 Кбит/сек
Ширина : 720 пикселей
Высота : 576 пикселей
Соотношение сторон : 16:9
Частота кадров : 25,000 кадров/сек
Стандарт вещания : PAL
Цветовое пространство : YUV
Субдискретизация насыщенности : 4:2:0
Битовая глубина : 8 бит
Тип развёртки : Чересстрочная
Порядок развёртки : Верхнее поле первое
Метод сжатия : С потерями
Бит/(Пиксели*Кадры) : 0.704
Размер потока : 882 Мбайт (86%)
Аудио #1
Идентификатор : 189 (0xBD)-128 (0x80)
Формат : AC-3
Формат/Информация : Audio Coding 3
Расширение режима : CM (complete main)
Параметр Endianness формата : Big
Режим смешивания : DVD-Video
Продолжительность : 16 м.
Вид битрейта : Постоянный
Битрейт : 256 Кбит/сек
Каналы : 6 каналов
Расположение каналов : Front: L C R, Side: L R, LFE
Частота : 48,0 КГц
Битовая глубина : 16 бит
Метод сжатия : С потерями
Задержка видео : -288 мс.
Размер потока : 30,9 Мбайт (3%)
Аудио #2
Идентификатор : 189 (0xBD)-137 (0x89)
Формат : DTS
Формат/Информация : Digital Theater Systems
Режим смешивания : DVD-Video
Продолжительность : 16 м.
Вид битрейта : Постоянный
Битрейт : 755 Кбит/сек
Каналы : 6 каналов
Расположение каналов : Front: L C R, Side: L R, LFE
Частота : 48,0 КГц
Битовая глубина : 24 бит
Метод сжатия : С потерями
Задержка видео : -352 мс.
Размер потока : 91,1 Мбайт (9%)
Меню

Скриншоты меню...

     

Скриншоты:

       
       
Other forum [Profile] [PM]
Display posts from previous:    
Reply to topic

The time now is: Today 10:18

All times are GMT + 3 Hours



You cannot post new topics in this forum
You cannot reply to topics in this forum
You cannot edit your posts in this forum
You cannot delete your posts in this forum
You cannot vote in polls in this forum
You cannot attach files in this forum
You cannot download files in this forum