Today is a free download without charge Download

Верзила / The Tall Man (Паскаль Ложье) [2012 г., ужасы, триллер, детектив, 1080p-BDRemux]

Reply to topic
 
Author
Message

Meshanik ®

Gender:

Longevity: 8 years 10 months

Posts: 3866

Location: Los Angeles

Торрент-статистика

Post 08-Dec-2012 06:00

[Quote]

-
Русское название: Верзила
Оригинальное название: The Tall Man
Год выпуска: 2012
Производство: США, Канада, Франция / Forecast Pictures, Iron Ocean Films, Minds Eye Entertainment
Жанр: Триллер, Драма, Криминал
Продолжительность: 01:45:41
Перевод: Двухголосый закадровый, любительский
Автор перевода / Озвучки: den904 и DeadSno
Субтитры: Вшитые отключаемые
Язык субтитров: Английский
-Дата мировой премьеры: 12 марта 2012-Режиссер: Паскаль Ложье
Актеры: Джессика Бил, Джоделль Ферланд, Уильям Б. Дэвис, Саманта Феррис, Коллин Вилер, Гарвин Санфорд, Джанет Райт, Ив Харлоу, Джон Манн, Тич Грант-Описание фильма:
Действие фильма разворачивается в американском городе Колд Рок, в котором на протяжении многих лет пропадают без вести дети. Местные легенды гласят, что их забирает к себе таинственный высокий человек.
Жительница Колд Рок, медсестра Джулия, не верит в эти легенды до тех пор, пока однажды ночью не обнаруживает, что кровать её сына пуста. Спустившись на первый этаж, она в ужасе видит, как некая тёмная фигура вместе с её сыном покидает дом. Руководствуясь инстинктом, Джулия бросается вслед за ними, пытаясь сделать всё возможное, чтобы вернуть сына, а заодно и получить ответы на вопросы: кто такой этот высокий человек? И что происходит с детьми?- -Качество видео: BDRemux [HDChina]
Видеокодек: VC-1
Битрейт видео: ~18,8 Мбит/сек
Размер кадра: 1920x1080
Аудио #1: Русский (Dolby AC3, 6 ch) 448 Кбит/сек
Аудио #2: Английский (DTS-HD МА, 6 ch) 3773 Кбит/сек
-

MediaInfo:

Код:
Общее
Уникальный идентификатор         : 175290244049677880307367685934148370337 (0x83DFAC498F1E4376B2D4D6A3E5BE3FA1)
Полное имя                       : H:\Verzila.2012.BluRay-Remux(1080p).mkv
Формат                           : Matroska
Версия формата                   : Version 2
Размер файла                     : 16,0 Гбайт
Продолжительность                : 1 ч. 45 м.
Режим общего битрейта            : Переменный
Общий поток                      : 21,6 Мбит/сек
Дата кодирования                 : UTC 2012-09-17 06:49:16
Программа кодирования            : mkvmerge v5.8.0 ('No Sleep / Pillow') built on Sep  2 2012 15:37:04
Библиотека кодирования           : libebml v1.2.3 + libmatroska v1.3.0
Видео
Идентификатор                    : 1
Формат                           : VC-1
Профиль формата                  : [email protected]
Идентификатор кодека             : WVC1
Идентификатор кодека/Подсказка   : Microsoft
Продолжительность                : 1 ч. 45 м.
Битрейт                          : 18,8 Мбит/сек
Ширина                           : 1920 пикселей
Высота                           : 1080 пикселей
Соотношение сторон               : 16:9
Частота кадров                   : 23,976 кадра/сек
Субдискретизация насыщенности    : 4:2:0
Битовая глубина                  : 8 бит
Тип развёртки                    : Прогрессивная
Метод сжатия                     : С потерями
Бит/(Пиксели*Кадры)              : 0.378
Размер потока                    : 13,9 Гбайт (87%)
Язык                             : English
Default                          : Да
Forced                           : Да
Аудио #1
Идентификатор                    : 2
Формат                           : AC-3
Формат/Информация                : Audio Coding 3
Расширение режима                : CM (complete main)
Идентификатор кодека             : A_AC3
Продолжительность                : 1 ч. 45 м.
Вид битрейта                     : Постоянный
Битрейт                          : 448 Кбит/сек
Каналы                           : 6 каналов
Расположение каналов             : Front: L C R, Side: L R, LFE
Частота                          : 48,0 КГц
Битовая глубина                  : 16 бит
Метод сжатия                     : С потерями
Задержка видео                   : -42 мс.
Размер потока                    : 339 Мбайт (2%)
Язык                             : Russian
Default                          : Да
Forced                           : Да
Аудио #2
Идентификатор                    : 3
Формат                           : DTS
Формат/Информация                : Digital Theater Systems
Профиль формата                  : MA / Core
Идентификатор кодека             : A_DTS
Продолжительность                : 1 ч. 45 м.
Вид битрейта                     : Переменный
Битрейт                          : 1966 Кбит/сек / 1510 Кбит/сек
Каналы                           : 6 каналов
Расположение каналов             : Front: L C R, Side: L R, LFE
Частота                          : 48,0 КГц
Битовая глубина                  : 24 бит
Метод сжатия                     : Без потерь / Lossy
Язык                             : English
Default                          : Нет
Forced                           : Нет
Текст
Идентификатор                    : 4
Формат                           : UTF-8
Идентификатор кодека             : S_TEXT/UTF8
Идентификатор кодека/Информация  : UTF-8 Plain Text
Язык                             : English
Default                          : Нет
Forced                           : Нет
Меню
00:00:00.000                     : en:00:00:00.000
00:10:40.431                     : en:00:10:40.431
00:18:55.092                     : en:00:18:55.092
00:27:42.494                     : en:00:27:42.494
00:33:16.620                     : en:00:33:16.620
00:44:46.893                     : en:00:44:46.893
00:58:29.423                     : en:00:58:29.423
01:06:48.880                     : en:01:06:48.880
01:16:53.651                     : en:01:16:53.651
01:24:57.718                     : en:01:24:57.718
01:34:33.251                     : en:01:34:33.251
01:40:11.964                     : en:01:40:11.964
-

Скриншоты

         
-
Other forum [Profile] [PM]
Display posts from previous:    
Reply to topic

The time now is: Today 10:57

All times are GMT + 3 Hours



You cannot post new topics in this forum
You cannot reply to topics in this forum
You cannot edit your posts in this forum
You cannot delete your posts in this forum
You cannot vote in polls in this forum
You cannot attach files in this forum
You cannot download files in this forum