Today is a free download without charge Download

Игра в прятки / Hide and Seek (Джон Полсон) [2004 г., ужасы, триллер, детектив, BDRip 720p]

Reply to topic
 
Author
Message

Delia ®

Gender:

Longevity: 9 years 6 months

Posts: 1821

Торрент-статистика

Post 07-Apr-2011 10:50

[Quote]

Игра в пряткиHide and SeekЕсли вы хотите знать секрет, вы должны играть в эту игру.- Год выпуска: 2004
Страна: США, Германия
Жанр: ужасы, триллер, детектив
Продолжительность: 01:40:52
Перевод: Профессиональный (полное дублирование)
Режиссер: Джон Полсон
Продюссер: Джозеф М. Карачиоло мл., Бэрри Джозефсон, Дэна Робин
Сценарий: Эри Шлоссберг
Бюджет: $30 000 000
Премьера в мире: 27 января 2005
В ролях: Роберт Де Ниро, Дакота Фаннинг, Фамке Янссен, Элизабет Шу, Эми Ирвинг, Дилан Бейкер, Мелисса Лео, Роберт Джон Бёрк, Молли Грант Кэллинс, Дэвид Чандлер
Описание: Отец-вдовец отчаянно пытается пробиться к своей 9-летней дочери, создавшей себе подлого маниакального воображаемого друга, одержимого идеей мести отцу. Однако воображаемые друзья могут войти и в реальную жизнь…
Качество: BDRip (Blu-Ray CEE 1080p)
Формат: MKV
Видео кодек: H.264
Аудио кодек: AC3
Видео: English, 5244 Кбит/сек, 1280*528 (2,40:1), в 23,976 кадр/сек, AVC
Аудио: Russian, 640 Кбит/сек, 48,0 КГц, 16 бит, 6 канала(ов), AC-3
Аудио:English, 320 Кбит/сек, 48,0 КГц, 16 бит, 6 канала(ов), AC-3
СубтитрыRussian, nglish - VobSub

Media Info:

Общее
Уникальный идентификатор : 212891258767958787116051064089889651011 (0xA0295D71AF7145FA8C8BDE163FD6B943)
Полное имя : E:\торрент\Hide and Seek (2004)BDRip 720p .mkv
Формат : Matroska
Размер файла : 4,37 Гбайт
Продолжительность : 1 ч. 40 м.
Общий поток : 6207 Кбит/сек
Дата кодирования : UTC 2011-04-07 06:07:57
Программа кодирования : mkvmerge v4.6.0 ('Still Crazy After All These Years') built on Mar 10 2011 02:50:32
Библиотека кодирования : libebml v1.2.0 + libmatroska v1.1.0
Видео
Идентификатор : 1
Формат : AVC
Формат/Информация : Advanced Video Codec
Профиль формата : [email protected]
Параметр CABAC формата : Да
Параметр ReFrames формата : 12 кадры
Параметры GOP формата : M=7, N=32
Идентификатор кодека : V_MPEG4/ISO/AVC
Продолжительность : 1 ч. 40 м.
Битрейт : 5244 Кбит/сек
Ширина : 1280 пикс.
Высота : 528 пикс.
Соотношение сторон : 2,40:1
Частота кадров : 23,976 кадр/сек
Цветовое пространство : YUV
Подвыборка цветности : 4:2:0
Битовая глубина : 8 бит
Тип развёртки : Прогрессивная
Бит/(Пиксели*Кадры) : 0.324
Размер потока : 3,61 Гбайт (83%)
Библиотека кодирования : x264 core 114 r1924 08d04a4
Настройки программы : cabac=1 / ref=12 / deblock=1:-3:-3 / analyse=0x3:0x133 / me=umh / subme=7 / psy=1 / psy_rd=1.00:0.15 / mixed_ref=1 / me_range=32 / chroma_me=1 / trellis=2 / 8x8dct=1 / cqm=0 / deadzone=21,11 / fast_pskip=0 / chroma_qp_offset=-3 / threads=6 / sliced_threads=0 / nr=0 / decimate=1 / interlaced=0 / constrained_intra=0 / bframes=6 / b_pyramid=2 / b_adapt=1 / b_bias=0 / direct=1 / weightb=0 / open_gop=0 / weightp=2 / keyint=250 / keyint_min=24 / scenecut=40 / intra_refresh=0 / rc_lookahead=40 / rc=2pass / mbtree=1 / bitrate=5244 / ratetol=1.0 / qcomp=0.60 / qpmin=5 / qpmax=51 / qpstep=4 / cplxblur=20.0 / qblur=0.5 / ip_ratio=1.40 / aq=1:1.00
Язык : English
Аудио #1
Идентификатор : 2
Формат : AC-3
Формат/Информация : Audio Coding 3
Расширение режима : CM (complete main)
Идентификатор кодека : A_AC3
Продолжительность : 1 ч. 40 м.
Вид битрейта : Постоянный
Битрейт : 640 Кбит/сек
Канал(ы) : 6 канала(ов)
Расположение каналов : Front: L C R, Side: L R, LFE
Частота : 48,0 КГц
Битовая глубина : 16 бит
Метод сжатия : С потерями
Размер потока : 462 Мбайт (10%)
Язык : Russian
Аудио #2
Идентификатор : 3
Формат : AC-3
Формат/Информация : Audio Coding 3
Расширение режима : CM (complete main)
Идентификатор кодека : A_AC3
Продолжительность : 1 ч. 40 м.
Вид битрейта : Постоянный
Битрейт : 320 Кбит/сек
Канал(ы) : 6 канала(ов)
Расположение каналов : Front: L C R, Side: L R, LFE
Частота : 48,0 КГц
Битовая глубина : 16 бит
Метод сжатия : С потерями
Размер потока : 231 Мбайт (5%)
Язык : English
Текст #1
Идентификатор : 4
Формат : VobSub
Режим смешивания : zlib
Идентификатор кодека : S_VOBSUB
Идентификатор кодека/Информация : The same subtitle format used on DVDs
Язык : Russian
Текст #2
Идентификатор : 5
Формат : VobSub
Режим смешивания : zlib
Идентификатор кодека : S_VOBSUB
Идентификатор кодека/Информация : The same subtitle format used on DVDs
Язык : English
Меню
00:00:00.000 : en:00:00:00.000
00:04:05.412 : en:00:04:05.412
00:06:43.612 : en:00:06:43.612
00:09:10.508 : en:00:09:10.508
00:10:48.356 : en:00:10:48.356
00:13:17.547 : en:00:13:17.547
00:16:22.857 : en:00:16:22.857
00:18:06.294 : en:00:18:06.294
00:21:32.249 : en:00:21:32.249
00:25:31.029 : en:00:25:31.029
00:27:43.412 : en:00:27:43.412
00:29:54.167 : en:00:29:54.167
00:33:18.705 : en:00:33:18.705
00:35:48.104 : en:00:35:48.104
00:38:06.784 : en:00:38:06.784
00:43:05.124 : en:00:43:05.124
00:46:25.199 : en:00:46:25.199
00:50:27.483 : en:00:50:27.483
00:53:24.493 : en:00:53:24.493
00:55:59.565 : en:00:55:59.565
00:58:40.350 : en:00:58:40.350
01:02:26.826 : en:01:02:26.826
01:06:00.665 : en:01:06:00.665
01:10:48.494 : en:01:10:48.494
01:12:37.019 : en:01:12:37.01
01:15:07.837 : en:01:15:07.837
01:19:52.579 : en:01:19:52.579
01:22:58.265 : en:01:22:58.265
01:25:06.101 : en:01:25:06.101
01:31:07.003 : en:01:31:07.003
01:35:44.948 : en:01:35:44.948
01:37:10.658 : en:01:37:10.658

Скриншоты

       

_________________
Человек – это канат, натянутый между животным и сверхчеловеком, – канат над пропастью.
В человеке ценно то, что он мост, а не цель. Фридрих Ницше


Last edited by Delia on 2012-04-30 13:33; edited 2 times in total
Other forum [Profile] [PM]

Nugeiro

Gender:

Longevity: 8 years 7 months

Posts: 1981

Location: Украина, Шостка

Торрент-статистика

Post 07-Apr-2011 11:06 (after 16 minutes)

[Quote]

Delia
Можете выложить DVDRip?. А то мне на нетбуке нет смысла качать BD Sad

_________________
Other forum [Profile] [PM]

Delia ®

Gender:

Longevity: 9 years 6 months

Posts: 1821

Торрент-статистика

Post 07-Apr-2011 11:18 (after 11 minutes)

[Quote]

DVDrip никогда не делала

_________________
Человек – это канат, натянутый между животным и сверхчеловеком, – канат над пропастью.
В человеке ценно то, что он мост, а не цель. Фридрих Ницше
Other forum [Profile] [PM]
Display posts from previous:    
Reply to topic

The time now is: Today 20:04

All times are GMT + 3 Hours



You cannot post new topics in this forum
You cannot reply to topics in this forum
You cannot edit your posts in this forum
You cannot delete your posts in this forum
You cannot vote in polls in this forum
You cannot attach files in this forum
You cannot download files in this forum