Today is a free download without charge Download

Гол 2: Жизнь как мечта / Goal II: Living the Dream (2007) DVDRip-AVC [драма, спорт, Жауме Серра]

Reply to topic
 
Author
Message

Nugeiro ®

Gender:

Longevity: 8 years 1 month

Posts: 1986

Location: Украина, Шостка

Торрент-статистика

Post 05-Apr-2011 12:32

[Quote]

Гол 2: Жизнь как мечта / Goal II: Living the Dream
Год выхода: 2007
Страна: Великобритания
Жанр: драма, спорт
Продолжительность: 01:50:39
Перевод: Дубляж

Режиссер: Жауме Серра
Бюджет: $30 000 000
Сборы в США: $225 067
Сборы в России: $157 700
Сборы в мире: + $7 590 910 = $7 815 977
В ролях: Куно Беккер / Kuno Becker, Стивен Диллэйн / Stephen Dillane, Анна Фрил / Anna Friel, Рутгер Хауэр / Rutger Hauer, Леонор Варела / Leonor Varela, Элизабет Пенья / Elizabeth Peña, Кармело, Гомез / Carmelo Gómez, Мириам Колон / Miriam Colon, Фрэнсис Барбер / Frances Barber, Уильям Бек / William Beck, Киран О`Брайэн / Kieran O'Brien
О фильме:
У восходящей звезды футбола Сантьяго Муньеса есть все: место нападающего в легендарной команде «Реал Мадрид», новенький «Ламборджини», собственная вилла, любовь знойных испанских красавиц. Но самое главное — у него есть возможность играть на одном поле и пользоваться одной раздевалкой с величайшими футболистами современности — с Бекхемом, Раулем, Зиданом и Рональдо!
Но прошлое не отпускает Сантьяго — проблемы таятся буквально за углом. Сумеет ли молодой футболист преодолеть искушение славой, деньгами, успехом? Сможет ли он сохранить преданность старым друзьям, и помочь своей новой команде выиграть финал Лиги Чемпионов?
Качество: DVDRip-AVC
Формат: MKV
Видео кодек: H.264
Видео: AVC; 720x428>1024x428 pix; ~2800 kbps; 25.000 fps; x264 ([email protected]); 0.363 bit/pixel
Аудио (Русский): 48 kHz, AC3 Dolby Digital, 2 channels, ~192 kbps
Субтитры: Russian (Во время разговоров на испанском).srt
Релиз группы:

MediaInfo

Format : Matroska
File size : 2.31 GiB
Duration : 1h 50mn
Overall bit rate : 2 990 Kbps
Encoded date : UTC 2011-02-06 08:46:38
Writing application : mkvmerge v4.5.0 ('Speed of Light') сборка от Feb 1 2011 02:10:32
Writing library : libebml v1.2.0 + libmatroska v1.1.0
Video
ID : 1
Format : AVC
Format/Info : Advanced Video Codec
Format profile : [email protected]
Format settings, CABAC : Yes
Format settings, ReFrames : 9 frames
Format settings, GOP : M=1, N=16
Muxing mode : Container [email protected]
Codec ID : V_MPEG4/ISO/AVC
Duration : 1h 50mn
Bit rate : 2 800 Kbps
Width : 720 pixels
Height : 428 pixels
Display aspect ratio : 2.35:1
Original display aspect ratio : 2.35:1
Frame rate : 25.000 fps
Color space : YUV
Chroma subsampling : 4:2:0
Bit depth : 8 bits
Scan type : Progressive
Bits/(Pixel*Frame) : 0.363
Stream size : 2.12 GiB (92%)
Writing library : x264 core 112 r1867 22bfd31
Encoding settings : cabac=1 / ref=9 / deblock=1:-2:-2 / analyse=0x3:0x113 / me=umh / subme=8 / psy=1 / psy_rd=1.00:0.15 / mixed_ref=1 / me_range=30 / chroma_me=1 / trellis=2 / 8x8dct=1 / cqm=0 / deadzone=21,11 / fast_pskip=1 / chroma_qp_offset=-5 / threads=3 / sliced_threads=0 / nr=0 / decimate=1 / interlaced=0 / constrained_intra=0 / bframes=8 / b_pyramid=2 / b_adapt=2 / b_bias=0 / direct=1 / weightb=1 / open_gop=0 / weightp=2 / keyint=250 / keyint_min=25 / scenecut=40 / intra_refresh=0 / rc_lookahead=40 / rc=2pass / mbtree=1 / bitrate=2800 / ratetol=1.0 / qcomp=0.70 / qpmin=10 / qpmax=51 / qpstep=4 / cplxblur=20.0 / qblur=0.5 / ip_ratio=1.40 / aq=1:1.00
Language : English
Audio
ID : 2
Format : AC-3
Format/Info : Audio Coding 3
Format profile : Dolby Digital
Mode extension : CM (complete main)
Muxing mode : Header stripping
Codec ID : A_AC3
Duration : 1h 50mn
Bit rate mode : Constant
Bit rate : 192 Kbps
Channel(s) : 2 channels
Channel positions : Front: L R
Sampling rate : 48.0 KHz
Bit depth : 16 bits
Stream size : 152 MiB (6%)
Language : Russian
Text
ID : 3
Format : UTF-8
Codec ID : S_TEXT/UTF8
Codec ID/Info : UTF-8 Plain Text
Language : Russian

Скриншоты

     

_________________


Last edited by Nugeiro on 2011-04-05 12:32; edited 1 time in total
Other forum [Profile] [PM]
Display posts from previous:    
Reply to topic

The time now is: Today 18:02

All times are GMT + 3 Hours



You cannot post new topics in this forum
You cannot reply to topics in this forum
You cannot edit your posts in this forum
You cannot delete your posts in this forum
You cannot vote in polls in this forum
You cannot attach files in this forum
You cannot download files in this forum