Today is a free download without charge Download

Леди-ястреб / Ladyhawke (Ричард Доннер) [1985 г., фэнтези, драма, мелодрама, комедия, приключения, BDRip]

Reply to topic
 
Author
Message

Delia ®

Gender:

Longevity: 9 years 6 months

Posts: 1821

Торрент-статистика

Post 05-Apr-2011 08:50

[Quote]

Леди-ястребLadyhawke«Волшебное мистическое приключение» Год выпуска: 1985
Страна: США
Жанр: фэнтези, драма, мелодрама, комедия, приключения
Продолжительность: 121 мин.
Перевод: Профессиональный (двухголосый)
Режиссер: Ричард Доннер
Продюссер: Харви Бернхард, Ричард Доннер, Лорен Шулер Доннер
Сценарий: Эдвард Хмара, Майкл Томас, Том Манкевич
Бюджет: $20 000 000
Премьера в мире: 27 марта 1985
В ролях: Мэттью Бродерик, Рутгер Хауэр, Мишель Пфайффер, Лео МакКерн, Джон Вуд, Кен Хатчинсон, Альфред Молина, Джанкарло Прете, Лорис Лодди, Алессандро Серра
Описание: Фильм основан на средневековой европейской легенде о доблестном рыцаре и ослепительной красавице. Епископ, злой колдун накладывает на них проклятье: по ночам рыцарь превращается в волка, а девушка — в ястреба днем.Слуги Епископа преследуют их уже два года, но удача пока улыбается нашим героям. С помощью маленького воришки Филиппа они надеются вернуться в город, где под неусыпной охраной живет их враг. Им нужно уничтожить злобного колдуна и снять с себя черное проклятье.
Качество: BDRip
Формат: MKV
Видео кодек: H.264
Аудио кодек: AC3
Видео: English, 4403 Кбит/сек, 1280*544 (2,35:1), в 23,976 кадр/сек, AVC
Аудио: Russian, 448 Кбит/сек, 48,0 КГц, 16 бит, 6 канала(ов), AC-3
Аудио:English, 320 Кбит/сек, 48,0 КГц, 16 бит, 6 канала(ов), AC-3
Субтитры:Russian, Ukrainian, English - VobSub

Media Info:

Общее
Уникальный идентификатор : 216481903537270838471221885859535052505 (0xA2DCE5E636CD24079FB9E1376D00DED9)
Полное имя : E:\торрент\Ladyhawke (1985) BDRip 720p.mkv
Формат : Matroska
Размер файла : 4,37 Гбайт
Продолжительность : 2 ч. 1 м.
Общий поток : 5175 Кбит/сек
Дата кодирования : UTC 2011-04-05 04:18:37
Программа кодирования : mkvmerge v4.6.0 ('Still Crazy After All These Years') built on Mar 10 2011 02:50:32
Библиотека кодирования : libebml v1.2.0 + libmatroska v1.1.0
Видео
Идентификатор : 1
Формат : AVC
Формат/Информация : Advanced Video Codec
Профиль формата : [email protected]
Параметр CABAC формата : Да
Параметр ReFrames формата : 10 кадры
Идентификатор кодека : V_MPEG4/ISO/AVC
Продолжительность : 2 ч. 1 м.
Битрейт : 4403 Кбит/сек
Ширина : 1280 пикс.
Высота : 544 пикс.
Соотношение сторон : 2,35:1
Частота кадров : 23,976 кадр/сек
Цветовое пространство : YUV
Подвыборка цветности : 4:2:0
Битовая глубина : 8 бит
Тип развёртки : Прогрессивная
Бит/(Пиксели*Кадры) : 0.264
Размер потока : 3,64 Гбайт (83%)
Библиотека кодирования : x264 core 114 r1924 08d04a4
Настройки программы : cabac=1 / ref=10 / deblock=1:-3:-3 / analyse=0x3:0x133 / me=umh / subme=7 / psy=1 / psy_rd=1.00:0.15 / mixed_ref=1 / me_range=32 / chroma_me=1 / trellis=2 / 8x8dct=1 / cqm=0 / deadzone=21,11 / fast_pskip=0 / chroma_qp_offset=-3 / threads=6 / sliced_threads=0 / nr=0 / decimate=1 / interlaced=0 / constrained_intra=0 / bframes=5 / b_pyramid=2 / b_adapt=1 / b_bias=0 / direct=1 / weightb=0 / open_gop=0 / weightp=2 / keyint=250 / keyint_min=24 / scenecut=40 / intra_refresh=0 / rc_lookahead=40 / rc=2pass / mbtree=1 / bitrate=4403 / ratetol=1.0 / qcomp=0.70 / qpmin=4 / qpmax=51 / qpstep=4 / cplxblur=20.0 / qblur=0.5 / ip_ratio=1.40 / aq=1:1.00
Язык : English
Аудио #1
Идентификатор : 2
Формат : AC-3
Формат/Информация : Audio Coding 3
Расширение режима : CM (complete main)
Идентификатор кодека : A_AC3
Продолжительность : 2 ч. 1 м.
Вид битрейта : Постоянный
Битрейт : 448 Кбит/сек
Канал(ы) : 6 канала(ов)
Расположение каналов : Front: L C R, Side: L R, LFE
Частота : 48,0 КГц
Битовая глубина : 16 бит
Метод сжатия : С потерями
Размер потока : 388 Мбайт (9%)
Язык : Russian
Аудио #2
Идентификатор : 3
Формат : AC-3
Формат/Информация : Audio Coding 3
Расширение режима : CM (complete main)
Идентификатор кодека : A_AC3
Продолжительность : 2 ч. 1 м.
Вид битрейта : Постоянный
Битрейт : 320 Кбит/сек
Канал(ы) : 6 канала(ов)
Расположение каналов : Front: L C R, Side: L R, LFE
Частота : 48,0 КГц
Битовая глубина : 16 бит
Метод сжатия : С потерями
Размер потока : 277 Мбайт (6%)
Язык : English
Текст #1
Идентификатор : 4
Формат : VobSub
Режим смешивания : zlib
Идентификатор кодека : S_VOBSUB
Идентификатор кодека/Информация : The same subtitle format used on DVDs
Язык : Russian
Текст #2
Идентификатор : 5
Формат : VobSub
Режим смешивания : zlib
Идентификатор кодека : S_VOBSUB
Идентификатор кодека/Информация : The same subtitle format used on DVDs
Язык : Ukrainian
Текст #3
Идентификатор : 6
Формат : VobSub
Режим смешивания : zlib
Идентификатор кодека : S_VOBSUB
Идентификатор кодека/Информация : The same subtitle format used on DVDs
Язык : English
Меню
00:00:00.000 : en:00:00:00.000
00:03:15.445 : en:00:03:15.445
00:08:46.735 : en:00:08:46.735
00:13:09.122 : en:00:13:09.122
00:15:43.901 : en:00:15:43.901
00:19:19.325 : en:00:19:19.325
00:22:02.321 : en:00:22:02.321
00:27:20.472 : en:00:27:20.472
00:30:09.141 : en:00:30:09.141
00:33:18.997 : en:00:33:18.997
00:38:00.778 : en:00:38:00.778
00:43:55.424 : en:00:43:55.424
00:48:38.707 : en:00:48:38.707
00:50:04.877 : en:00:50:04.877
00:56:10.033 : en:00:56:10.033
00:57:59.768 : en:00:57:59.768
01:00:48.728 : en:01:00:48.728
01:03:30.181 : en:01:03:30.181
01:07:50.066 : en:01:07:50.066
01:13:02.878 : en:01:13:02.878
01:16:56.111 : en:01:16:56.111
01:22:55.888 : en:01:22:55.888
01:28:01.109 : en:01:28:01.109
01:33:07.832 : en:01:33:07.832
01:36:51.055 : en:01:36:51.055
01:39:07.108 : en:01:39:07.108
01:40:46.082 : en:01:40:46.082
01:44:13.831 : en:01:44:13.831
01:47:02.374 : en:01:47:02.374
01:49:09.668 : en:01:49:09.668
01:54:18.685 : en:01:54:18.685
01:57:40.053 : en:01:57:40.053

Скриншоты

     
     

_________________
Человек – это канат, натянутый между животным и сверхчеловеком, – канат над пропастью.
В человеке ценно то, что он мост, а не цель. Фридрих Ницше


Last edited by Delia on 2011-08-14 16:54; edited 1 time in total
Other forum [Profile] [PM]
Display posts from previous:    
Reply to topic

The time now is: Today 09:18

All times are GMT + 3 Hours



You cannot post new topics in this forum
You cannot reply to topics in this forum
You cannot edit your posts in this forum
You cannot delete your posts in this forum
You cannot vote in polls in this forum
You cannot attach files in this forum
You cannot download files in this forum