Today is a free download without charge Download

Джонни Д. / Public Enemies (Майкл Манн / Michael Mann) [Триллер, драма, криминал, 2009., BDRip, 1080p] AVO ( А.Гаврилов, Ю.Сербин ) + original (Eng)

Reply to topic
 
Author
Message

DeadMmau5 ®

Gender:

Longevity: 8 years 6 months

Posts: 155

Location: Поскот

Торрент-статистика

Post 07-Dec-2012 14:16

[Quote]

-Джонни Д. / Public Enemies -«America's Most Wanted» -Год выпуска: 2009
Производство: США
Жанр: Триллер, драма, криминал
Продолжительность: 02:20:04
Перевод: Авторский (одноголосый) А.Гаврилов, Ю.Сербин
Оригинальный аудиопоток: английский
Субтитры: русские, английские
Режиссер: Майкл Манн / Michael Mann-В ролях:Джонни Депп / Johnny Depp, Марион Котийяр / Marion Cotillard, Кристиан Бэйл / Christian Bale, Джейсон Кларк / Jason Clarke, Кристиан Столте / Christian Stolte, Джеймс Руссо / James Russo, Стивен Дорфф / Stephen Dorff, Джованни Рибизи / Giovanni Ribisi, Билли Крудап / Billy Crudup ...-Описание:Сюжет фильма повествует о легендарном грабителе банков Джоне Диллинджере. Дерзкие нападения сделали его выдающимся героем для всех угнетенных и главной мишенью для лучшего агента ФБР Мелвина Первиса и директора бюро Джона Эдгара Гувера. Никто не мог остановить банду Диллинджера. Ни одна тюрьма не могла его удержать. Обаяние и отчаянные побеги прославляли преступника в обществе, считавшем банки главной причиной Великой депрессии.
В то время, как приключения лихой банды, к которой примкнули Малыш Нельсон и Элвин Карпис, вдохновляли обозленных граждан, Гувер решил воспользоваться случаем и превратить Бюро расследований в главную правоохранительную организацию страны — ФБР. Он сделал Диллинджера самым опасным врагом Америки, а спасителем нарек Первиса, гордость Федерального бюро.-- -Качество: BDRip
Контейнер: MKV
Стандарт разрешения: 1080p
Видео кодек: H.264
Аудио кодек: AC3, DTS
Видео: [email protected] / 1920x800 / 16,3 Мbps / 23.976 fps
Аудио #1: Dolby AC3 / 5.1 / 48 kHz / 384kbps ( А.Гаврилов )
Аудио #2: Dolby AC3 / 5.1 / 48 kHz / 448kbps ( Ю.Сербин )
Аудио #3: DTS / 5.1 / 48 kHz / 1510 kbps / 24-bit ( оригинал )
Формат субтитров: softsub (SRT)

Знаете ли вы, что...

--Этот фильм — экранизация документального романа Брайана Барро «Враги общества: Величайшая волна преступности в Америке и рождение ФБР».
Планировалось, что главную роль сыграет Леонардо ДиКаприо.
В фильме Джонни Депп говорит одному из посетителей банка: «Нам нужны не ваши деньги, а только деньги банка». Такую же фразу произносит герой Роберт Де Ниро в картине Манна «Схватка».
Съемки фильма прошли в семи городах штата Иллинойс, семи городах Висконсина, в одном из городов Индианы, а также в Майями.
В результате забастовки сценаристов режиссер Майкл Манн смог привлечь к проекту Джонни Деппа и Марион Котийяр, так как проекты, в которых они в то время снимались, были отложены. Джонни Депп готовился к съемкам в фильме «Шантарам»(2011), режиссер Мира Наир, а Котийяр репетировала роль в мюзикле Роба Маршалла «Девять»(2009).
Картина открывается смертью Красавчика Флойда. На самом деле Флойд был убит уже после Джона Диллинджера.
В картине во время перестрелки в «Маленькой Богемии» был убит Нельсон, Ван Митер и другие преступники. На самом же деле никто из преступников убит не был, был только ранен Пит Пирпойнт (который почему-то в фильме в это время сидел в тюрьме, что противоречит действительности). «Маленькая Богемия» осталась одной из позорных страниц в истории ФБР: все преступники сбежали, а агенты убили ни в чём не повинного местного жителя и ранили нескольких; также был убит один из агентов ФБР.-

Media Info

-Видео
Идентификатор : 1
Формат : AVC
Формат/Информация : Advanced Video Codec
Профиль формата : [email protected]
Параметр CABAC формата : Да
Параметр ReFrames формата : 5 кадров
Режим смешивания : Header stripping
Идентификатор кодека : V_MPEG4/ISO/AVC
Продолжительность : 2 ч. 20 м.
Битрейт : 16,3 Мбит/сек
Ширина : 1920 пикселей
Высота : 800 пикселей
Соотношение сторон : 2,40:1
Частота кадров : 23,976 кадра/сек
Цветовое пространство : YUV
Субдискретизация насыщенности : 4:2:0
Битовая глубина : 8 бит
Тип развёртки : Прогрессивная
Бит/(Пиксели*Кадры) : 0.441
Размер потока : 15,5 Гбайт (85%)
Заголовок : Джонни Д.2009.BDRip.1080p.2xAVO.(C)
Библиотека кодирования : x264 core 77 r1294M 813fe72
Настройки программы : cabac=1 / ref=5 / deblock=1:-3:-3 / analyse=0x3:0x133 / me=esa / subme=10 / psy=1 / psy_rd=0.9:0.2 / mixed_ref=1 / me_range=16 / chroma_me=1 / trellis=2 / 8x8dct=1 / cqm=0 / deadzone=21,11 / chroma_qp_offset=-3 / threads=6 / nr=0 / decimate=0 / mbaff=0 / constrained_intra=0 / bframes=5 / b_pyramid=1 / b_adapt=2 / b_bias=0 / direct=3 / wpredb=1 / keyint=250 / keyint_min=25 / scenecut=40 / rc=2pass / mbtree=0 / bitrate=16254 / ratetol=1.0 / qcomp=0.60 / qpmin=10 / qpmax=51 / qpstep=4 / cplxblur=20.0 / qblur=0.5 / ip_ratio=1.40 / pb_ratio=1.30 / aq=1:0.80
Язык : English
Default : Да
Forced : Нет
Аудио #1
Идентификатор : 2
Формат : AC-3
Формат/Информация : Audio Coding 3
Расширение режима : CM (complete main)
Режим смешивания : Header stripping
Идентификатор кодека : A_AC3
Продолжительность : 2 ч. 20 м.
Вид битрейта : Постоянный
Битрейт : 384 Кбит/сек
Каналы : 6 каналов
Расположение каналов : Front: L C R, Side: L R, LFE
Частота : 48,0 КГц
Битовая глубина : 16 бит
Метод сжатия : С потерями
Размер потока : 385 Мбайт (2%)
Заголовок : AVO ( А.Гаврилов )
Язык : Russian
Default : Да
Forced : Нет
Аудио #2
Идентификатор : 3
Формат : AC-3
Формат/Информация : Audio Coding 3
Расширение режима : CM (complete main)
Режим смешивания : Header stripping
Идентификатор кодека : A_AC3
Продолжительность : 2 ч. 20 м.
Вид битрейта : Постоянный
Битрейт : 448 Кбит/сек
Каналы : 6 каналов
Расположение каналов : Front: L C R, Side: L R, LFE
Частота : 48,0 КГц
Битовая глубина : 16 бит
Метод сжатия : С потерями
Размер потока : 449 Мбайт (2%)
Заголовок : AVO ( Ю.Сербин )
Язык : Russian
Default : Нет
Forced : Нет
Аудио #3
Идентификатор : 4
Формат : DTS
Формат/Информация : Digital Theater Systems
Режим смешивания : Header stripping
Идентификатор кодека : A_DTS
Продолжительность : 2 ч. 20 м.
Вид битрейта : Постоянный
Битрейт : 1510 Кбит/сек
Каналы : 6 каналов
Расположение каналов : Front: L C R, Side: L R, LFE
Частота : 48,0 КГц
Битовая глубина : 24 бит
Метод сжатия : С потерями
Размер потока : 1,48 Гбайт (8%)
Заголовок : Оригинал
Язык : English
Default : Нет
Forced : Нет
Текст #1
Идентификатор : 5
Формат : UTF-8
Идентификатор кодека : S_TEXT/UTF8
Идентификатор кодека/Информация : UTF-8 Plain Text
Заголовок : Русские ( Full )
Язык : Russian
Default : Нет
Forced : Нет
Текст #2
Идентификатор : 6
Формат : UTF-8
Идентификатор кодека : S_TEXT/UTF8
Идентификатор кодека/Информация : UTF-8 Plain Text
Заголовок : Русские ( Forced )
Язык : Russian
Default : Нет
Forced : Нет
Текст #3
Идентификатор : 7
Формат : ASS
Идентификатор кодека : S_TEXT/ASS
Идентификатор кодека/Информация : Advanced Sub Station Alpha
Метод сжатия : Без потерь
Заголовок : Оригинал
Язык : English
Default : Нет
Forced : Нет
Меню
00:00:00.000 : :
00:04:31.438 : :
00:13:48.077 : :
00:18:57.887 : :
00:26:54.488 : :
00:36:12.796 : :
00:45:48.537 : :
00:57:40.457 : :
01:05:27.340 : :
01:13:46.839 : :
01:17:43.075 : :
01:24:06.083 : :
01:35:30.725 : :
01:46:44.189 : :
01:59:36.544 : :
02:07:26.597 : :
--        
         
-- -

_________________
Other forum [Profile] [PM]
Display posts from previous:    
Reply to topic

The time now is: Today 08:59

All times are GMT + 3 Hours



You cannot post new topics in this forum
You cannot reply to topics in this forum
You cannot edit your posts in this forum
You cannot delete your posts in this forum
You cannot vote in polls in this forum
You cannot attach files in this forum
You cannot download files in this forum