Today is a free download without charge Download

Обитель Зла: Возмездие / Resident Evil: Retribution (Пол У. С. Андерсон / Paul W.S. Anderson) [2012 г., фантастика, боевик, BDRip 720p] [лицензия]

Reply to topic
 
Author
Message

Meshanik ®

Gender:

Longevity: 8 years 10 months

Posts: 3866

Location: Los Angeles

Торрент-статистика

Post 07-Dec-2012 06:55

[Quote]


Обитель Зла: Возмездие / Resident Evil: Retribution
- Название: Обитель зла 5: Возмездие
Оригинальное название: Resident Evil: Retribution
Год выхода: 2012
Страна: США, Германия, Канада
Жанр: ужасы, фантастика, боевик, триллер
Продолжительность: 01:35:37
Перевод: Профессиональный (полное дублирование) [лицензия]
Cубтитры: русские, английские-Режиссер: Пол У. С. Андерсон
Продюсер: Пол У. С. Андерсон, Джереми Болт, Дон Кармоди
В ролях: Милла Йовович, Сиенна Гиллори, Мишель Родригез, Ариана Энджинир, Ли Бинбин, Борис Коджо, Йохан Урб, Робин Касянов, Кевин Дюран, Офилио Портильо, Одед Фер, Шоун Робертс, Тошио Оки, Такато Йамашита, Мика Накашима, Меган Чарпентье, Авэ Мерсон-О’Брайан, Рэй Олубовейл, Кевин Шанд, Разаак Адоти, Ким Коутс, Мартин Крюз, Иэн Глен, Сандрин Холт, Томас Кречманн, Эли Лартер, Спенсер Лок, Эрик Мэбиас, Вентворт Миллер, Джеймс Пьюрфой-Дата мировой премьеры: 3 сентября 2012
Дата РФ премьеры: 13 сентября 2012, «WDSSPR»
Дата DVD премьеры: 17 декабря 2012, «Columbia/Sony»-Описание: Смертельный T-вирус, созданный в лабораториях корпорации «Амбрелла», продолжает захватывать Землю, превращая мировое население в легионы пожирающих плоть зомби. Последняя надежда человечества, Элис, внедряется в самое сердце самой тайной исследовательской базы корпорации и узнает еще больше о собственном таинственном прошлом. Не имея путей к отступлению, Элис продолжает искать виновных в глобальной катастрофе. Вызов, который она принимала в Токио, Нью-Йорке, Вашингтоне и даже в Москве, приводит ее в итоге к взрывающему сознание откровению, которое заставит ее переосмыслить все, что она полагала правдой. С помощью новых союзников и старых друзей, Элис будет сражаться за выживание и убегать из враждебного мира. Отсчет времени начат…- -Качество: BDRip 720p
Формат: MKV
Видео кодек: AVC
Аудио кодек: AC3, DTS
Видео: 1280x534 (16:9), 5800 Kbps, 23.976 fps
Аудио #1: 48 kHz, AC3; 6 ch, 640 kbps | Русский
Аудио #2: 48 kHz, AC3; 6 ch, 640 kbps | Украинский
Аудио #3: 48 kHz, DTS; 6 ch, 1 510 kbps | Английский
-

Знаете ли вы, что...

• Дженсен Эклс пробовался на роль Леона Кеннеди, но позже её получил Йохан Урб.
• Ариана Энджинир получила роль Бекки без прослушивания.
-

MediaInfo..

Код:
Полное имя                               : F:\Фильмы\HD-BD\Обитель Зла Возмездие  Resident Evil Retribution 2012 BDRip 720-1080p\Obitel.zla.vozmezdie.2012.D.BDRip.720p.Обитель Зла: Возмездие / Resident Evil: Retribution.mkv
Формат                                   : Matroska
Версия формата                           : Version 2
Размер файла                             : 6,00 Гбайт
Продолжительность                        : 1 ч. 35 м.
Общий поток                              : 8976 Кбит/сек
Название фильма                          : -=Обитель Зла: Возмездие / Resident Evil: Retribution=-
Дата кодирования                         : UTC 2012-12-06 21:07:39
Программа кодирования                    : mkvmerge v2.9.9 ('Tutu') built on Nov 25 2009 21:13:32
Библиотека кодирования                   : libebml v0.7.9 + libmatroska v0.8.1
Видео
Идентификатор                            : 1
Формат                                   : AVC
Формат/Информация                        : Advanced Video Codec
Профиль формата                          : [email protected]
Параметр CABAC формата                   : Да
Параметр ReFrames формата                : 12 кадров
Идентификатор кодека                     : V_MPEG4/ISO/AVC
Продолжительность                        : 1 ч. 35 м.
Битрейт                                  : 5800 Кбит/сек
Ширина                                   : 1280 пикселей
Высота                                   : 534 пикселя
Соотношение сторон                       : 2,40:1
Режим частоты кадров                     : Постоянный
Частота кадров                           : 23,976 кадра/сек
Цветовое пространство                    : YUV
Субдискретизация насыщенности            : 4:2:0
Битовая глубина                          : 8 бит
Тип развёртки                            : Прогрессивная
Бит/(Пиксели*Кадры)                      : 0.354
Размер потока                            : 3,76 Гбайт (63%)
Заголовок                                : Obitel.zla.vozmezdie.2012.D.BDRip.720p
Библиотека кодирования                   : x264 core 129 r2230+696+36 4446aa2 tMod+MixAQ [[email protected]:2:0 X86_64]
Настройки программы                      : cabac=1 / ref=12 / deblock=1:-3:-3 / analyse=0x3:0x113 / me=umh / subme=10 / psy=1 / fade_compensate=0.00 / psy_rd=1.10:0.00 / mixed_ref=1 / me_range=32 / chroma_me=1 / trellis=2 / 8x8dct=1 / cqm=0 / deadzone=21,11 / fast_pskip=0 / chroma_qp_offset=-2 / threads=18 / lookahead_threads=3 / sliced_threads=0 / nr=0 / decimate=0 / interlaced=0 / bluray_compat=0 / constrained_intra=0 / fgo=0 / bframes=8 / b_pyramid=2 / b_adapt=2 / b_bias=0 / direct=3 / weightb=1 / open_gop=0 / weightp=2 / keyint=240 / keyint_min=24 / scenecut=40 / intra_refresh=0 / rc_lookahead=240 / rc=2pass / mbtree=1 / bitrate=5800 / ratetol=1.0 / qcomp=0.70 / qpmin=0 / qpmax=69 / qpstep=4 / cplxblur=20.0 / qblur=0.5 / ip_ratio=1.10 / aq=4 / aq-strength=0.90 / aq-sensitivity=10.00 / aq-ifactor=1.00 / aq-pfactor=1.00 / aq-bfactor=1.00 / aq2=0
Язык                                     : English
Default                                  : Нет
Forced                                   : Нет
Аудио #1
Идентификатор                            : 2
Формат                                   : AC-3
Формат/Информация                        : Audio Coding 3
Расширение режима                        : CM (complete main)
Параметр Endianness формата              : Big
Идентификатор кодека                     : A_AC3
Продолжительность                        : 1 ч. 35 м.
Вид битрейта                             : Постоянный
Битрейт                                  : 640 Кбит/сек
Каналы                                   : 6 каналов
Расположение каналов                     : Front: L C R, Side: L R, LFE
Частота                                  : 48,0 КГц
Битовая глубина                          : 16 бит
Метод сжатия                             : С потерями
Размер потока                            : 438 Мбайт (7%)
Заголовок                                : AC3.448.Kbps (6ch) Russian
Язык                                     : Russian
Default                                  : Да
Forced                                   : Нет
Аудио #2
Идентификатор                            : 3
Формат                                   : AC-3
Формат/Информация                        : Audio Coding 3
Расширение режима                        : CM (complete main)
Параметр Endianness формата              : Big
Идентификатор кодека                     : A_AC3
Продолжительность                        : 1 ч. 35 м.
Вид битрейта                             : Постоянный
Битрейт                                  : 640 Кбит/сек
Каналы                                   : 6 каналов
Расположение каналов                     : Front: L C R, Side: L R, LFE
Частота                                  : 48,0 КГц
Битовая глубина                          : 16 бит
Метод сжатия                             : С потерями
Размер потока                            : 438 Мбайт (7%)
Заголовок                                : AC3.640.Kbps (6ch) Ukrainian
Язык                                     : Ukrainian
Default                                  : Нет
Forced                                   : Нет
Аудио #3
Идентификатор                            : 4
Формат                                   : DTS
Формат/Информация                        : Digital Theater Systems
Идентификатор кодека                     : A_DTS
Продолжительность                        : 1 ч. 35 м.
Вид битрейта                             : Постоянный
Битрейт                                  : 1510 Кбит/сек
Каналы                                   : 6 каналов
Расположение каналов                     : Front: L C R, Side: L R, LFE
Частота                                  : 48,0 КГц
Битовая глубина                          : 24 бит
Метод сжатия                             : С потерями
Задержка видео                           : 11 мс.
Размер потока                            : 1,01 Гбайт (17%)
Заголовок                                : DTS.1510.Kbps (6ch) English
Язык                                     : English
Default                                  : Нет
Forced                                   : Нет
Аудио #4
Идентификатор                            : 5
Формат                                   : AC-3
Формат/Информация                        : Audio Coding 3
Профиль формата                          : Dolby Digital
Расширение режима                        : CM (complete main)
Параметр Endianness формата              : Big
Идентификатор кодека                     : A_AC3
Продолжительность                        : 1 ч. 35 м.
Вид битрейта                             : Постоянный
Битрейт                                  : 192 Кбит/сек
Каналы                                   : 2 канала
Расположение каналов                     : Front: L R
Частота                                  : 48,0 КГц
Битовая глубина                          : 16 бит
Метод сжатия                             : С потерями
Размер потока                            : 131 Мбайт (2%)
Заголовок                                : AC3.192.Kbps (2ch) English.Commentary #1
Язык                                     : English
Default                                  : Нет
Forced                                   : Нет
Аудио #5
Идентификатор                            : 6
Формат                                   : AC-3
Формат/Информация                        : Audio Coding 3
Профиль формата                          : Dolby Digital
Расширение режима                        : CM (complete main)
Параметр Endianness формата              : Big
Идентификатор кодека                     : A_AC3
Продолжительность                        : 1 ч. 35 м.
Вид битрейта                             : Постоянный
Битрейт                                  : 192 Кбит/сек
Каналы                                   : 2 канала
Расположение каналов                     : Front: L R
Частота                                  : 48,0 КГц
Битовая глубина                          : 16 бит
Метод сжатия                             : С потерями
Размер потока                            : 131 Мбайт (2%)
Заголовок                                : AC3.192.Kbps (2ch) English.Commentary #2
Язык                                     : English
Default                                  : Нет
Forced                                   : Нет
Текст #1
Идентификатор                            : 7
Формат                                   : UTF-8
Идентификатор кодека                     : S_TEXT/UTF8
Идентификатор кодека/Информация          : UTF-8 Plain Text
Заголовок                                : Russian (Full)
Язык                                     : Russian
Default                                  : Да
Forced                                   : Нет
Текст #2
Идентификатор                            : 8
Формат                                   : UTF-8
Идентификатор кодека                     : S_TEXT/UTF8
Идентификатор кодека/Информация          : UTF-8 Plain Text
Заголовок                                : English (Full)
Язык                                     : English
Default                                  : Нет
Forced                                   : Нет
Текст #3
Идентификатор                            : 9
Формат                                   : UTF-8
Идентификатор кодека                     : S_TEXT/UTF8
Идентификатор кодека/Информация          : UTF-8 Plain Text
Заголовок                                : English (SDH)
Язык                                     : English
Default                                  : Нет
Forced                                   : Нет
Текст #4
Идентификатор                            : 10
Формат                                   : UTF-8
Идентификатор кодека                     : S_TEXT/UTF8
Идентификатор кодека/Информация          : UTF-8 Plain Text
Заголовок                                : English Commentary-P. Аnderson
Язык                                     : English
Default                                  : Нет
Forced                                   : Нет
Текст #5
Идентификатор                            : 11
Формат                                   : UTF-8
Идентификатор кодека                     : S_TEXT/UTF8
Идентификатор кодека/Информация          : UTF-8 Plain Text
Заголовок                                : English Commentary-B.Jeremy
Язык                                     : English
Default                                  : Нет
Forced                                   : Нет
Меню
00:00:00.000                             : en:00:00:00.000
00:07:43.046                             : en:00:07:43.046
00:14:32.538                             : en:00:14:32.538
00:21:38.839                             : en:00:21:38.839
00:25:39.329                             : en:00:25:39.329
00:29:31.186                             : en:00:29:31.186
00:34:16.846                             : en:00:34:16.846
00:39:14.769                             : en:00:39:14.769
00:45:29.435                             : en:00:45:29.435
00:50:27.441                             : en:00:50:27.441
00:54:42.070                             : en:00:54:42.070
01:00:14.861                             : en:01:00:14.861
01:05:38.476                             : en:01:05:38.476
01:11:22.904                             : en:01:11:22.904
01:16:15.571                             : en:01:16:15.571
01:21:29.384                             : en:01:21:29.384
-

Скриншоты...

           
-
Other forum [Profile] [PM]
Display posts from previous:    
Reply to topic

The time now is: Today 10:01

All times are GMT + 3 Hours



You cannot post new topics in this forum
You cannot reply to topics in this forum
You cannot edit your posts in this forum
You cannot delete your posts in this forum
You cannot vote in polls in this forum
You cannot attach files in this forum
You cannot download files in this forum