Today is a free download without charge Download

Машины разобрать и продать. Разборка супермини / Strippers. Cars for cash [2012, Документальный, SATRip]

Reply to topic
 
Author
Message

Omen ®

Longevity: 9 years

Posts: 181086

Торрент-статистика

Post 06-Dec-2012 21:56

[Quote]

Машины разобрать и продать. Разборка супермини / Strippers. Cars for cash
Год выпуска: 2012
Страна: США, National Geographic Channel
Жанр: Документальный
Продолжительность: 00:44:17
Перевод: Профессиональный (одноголосый)
Описание: Легендарные машины пользуются огромным спросом до сих пор - значит, наши авторазборщики могут хорошо заработать на рынке запчастей. Сегодня разборка супермини.
Качество: SATRip
Формат: AVI
Видео кодек: XviD
Аудио кодек: MP3
Видео: 704x400 (1.76:1), 25 fps, XviD build 65 ~1500 kbps avg
Аудио: 48 kHz, MPEG Layer 3, 2 ch, ~192.00 kbps avg

MI

ОбщееПолное имя : E:\Downloads\55\Машины разобрать и продать. Разборка супермини_(2012).aviФормат : AVIФормат/Информация : Audio Video InterleaveРазмер файла : 548 МбайтПродолжительность : 44 м.Общий поток : 1702 Кбит/секПрограмма кодирования : VirtualDubMod 1.5.10.3 | www.virtualdub-fr.org || (build 2550/release)Библиотека кодирования : VirtualDubMod build 2550/release
ВидеоИдентификатор : 0Формат : MPEG-4 VisualПрофиль формата : Advanced [email protected]Параметр BVOP формата : 1Параметр QPel формата : НетПараметр GMC формата : Без точки переходаПараметр матрицы формата : Default (H.263)Идентификатор кодека : XVIDИдентификатор кодека/Подсказка : XviDПродолжительность : 44 м.Битрейт : 1500 Кбит/секШирина : 704 пикс.Высота : 400 пикс.Соотношение сторон : 16:9Частота кадров : 25,000 кадр/секЦветовое пространство : YUVПодвыборка цветности : 4:2:0Битовая глубина : 8 битТип развёртки : ПрогрессивнаяМетод сжатия : С потерямиБит/(Пиксели*Кадры) : 0.213Размер потока : 483 Мбайт (88%)Библиотека кодирования : XviD 1.2.1 (UTC 2008-12-04)
АудиоИдентификатор : 1Формат : MPEG AudioВерсия формата : Version 1Профиль формата : Layer 3Идентификатор кодека : 55Идентификатор кодека/Подсказка : MP3Продолжительность : 44 м.Вид битрейта : ПостоянныйБитрейт : 192 Кбит/секКаналы : 2 каналаЧастота : 48,0 КГцМетод сжатия : С потерямиРазмер потока : 61,8 Мбайт (11%)Выравнивание : Соединение по промежуткамПродолжительность промежутка : 40 мс. (1,00 видеокадр)Время предзагрузки промежутка : 504 msБиблиотека кодирования : LAME3.98rНастройки программы : -m s -V 4 -q 2 -lowpass 18.6 -b 192
Релиз: РиперАм

Скриншоты

Other forum [Profile] [PM]
Similar theme
Forum Topic Author Torrent Replies Last Post
./templates/default/images/folder_dl.gif Отечественные мультфильмы Маша и медведь [01-78] + Машкины страшилки [01-26] + Машины сказки [01-26] + Караоке с Машей [01-18] + Машины песенки [01-12] (Олег Кузовков, Олег Ужинов, Денис Червяцов, …) [2009–2020, мультфильм, семейный, BDRip; DVDRip; WEB-DLRip] Дополняемая DED
1 | 0

0 | 247

0

2020-06-29 17:59
DED Latest
Display posts from previous:    
Reply to topic

The time now is: Today 06:31

All times are GMT + 3 Hours



You cannot post new topics in this forum
You cannot reply to topics in this forum
You cannot edit your posts in this forum
You cannot delete your posts in this forum
You cannot vote in polls in this forum
You cannot attach files in this forum
You cannot download files in this forum