Today is a free download without charge Download

Мегазаводы: Гумперт Аполло / Megafactories: Gumpert Apollo [2012, Документальный, SATRip]

Reply to topic
 
Author
Message

Omen ®

Longevity: 9 years

Posts: 181086

Торрент-статистика

Post 06-Dec-2012 21:56

[Quote]

Мегазаводы: Гумперт Аполло / Megafactories: Gumpert Apollo
Год выпуска: 2012
Страна: США, National Geographic Channels
Жанр: Документальный
Продолжительность: 00:44:26
Перевод: Профессиональный (одноголосый)
Субтитры: Нет
Описание: Сначала, советуем вам побывать в маленьком поселке Сант Агата в Итальянской Болонье, где настойчивые и упорные поклонники самых крутых автомобилей вручную собирают самую быструю машину Lamborghini-Murcielago SV.
Далее, отправляйтесь на север, в Англию, где вы сможете познакомиться с производством знаменитых королевских Роллз-Ройсов и узнать, почему изготовление каждого из супер-роскошных автомобилей Роллз-Ройс-Фантом требует не менее двух месяцев.
А в Швеции, вы увидите собственными глазами, как на заводе ИКЕА буквально за считанные минуты изготавливаются знаменитые и очень популярные книжные шкафы Билли. Только за тридцать лет работы предприятия было распродано 40 миллионов таких шкафов!
Хотите испытать коробку скоростей автомобиля Ауди и убедиться в том, почему революционный немецкий дорожный автомобиль Ауди-Р8 заставляет Голливуд изменить своим прежним приоритетам, прежде чем отправиться на родину классического Порше 911.
И в завершение, совершите полет в Бразилию, где, по заказу для Нью Йоркского метро, каждый вагон проходит через две с половиной тысячи сварочных операций, прежде чем его отправят в Нью-Йорк для окончательной сборки и финальной проверки.
Качество: SATRip
Формат: AVI
Видео кодек: XviD
Аудио кодек: MP3
Видео: XviD, 1649 Кбит/сек, 704 x 400 (1.760) at 25.000 fps
Аудио: MP3, 128 Кбит/сек, 2 канала, 48,0 КГц

MI

ОбщееПолное имя : E:\Downloads\55\Megafactories-Gumpert.Apollo.(2012).SATRip.aviФормат : AVIФормат/Информация : Audio Video InterleaveРазмер файла : 576 МбайтПродолжительность : 44 м.Общий поток : 1790 Кбит/секБиблиотека кодирования : TMPGEnc 4.0 XPress Version. 4.7.7.307
ВидеоИдентификатор : 0Формат : MPEG-4 VisualПрофиль формата : Advanced [email protected]Параметр BVOP формата : 2Параметр QPel формата : НетПараметр GMC формата : Без точки переходаПараметр матрицы формата : Default (H.263)Режим смешивания : Сжатый битовый потокИдентификатор кодека : XVIDИдентификатор кодека/Подсказка : XviDПродолжительность : 44 м.Битрейт : 1649 Кбит/секШирина : 704 пикс.Высота : 400 пикс.Соотношение сторон : 16:9Частота кадров : 25,000 кадр/секЦветовое пространство : YUVПодвыборка цветности : 4:2:0Битовая глубина : 8 битТип развёртки : ПрогрессивнаяМетод сжатия : С потерямиБит/(Пиксели*Кадры) : 0.234Размер потока : 531 Мбайт (92%)Библиотека кодирования : XviD 1.2.1 (UTC 2008-12-04)
АудиоИдентификатор : 1Формат : MPEG AudioВерсия формата : Version 1Профиль формата : Layer 3Режим : Joint stereoРасширение режима : MS StereoИдентификатор кодека : 55Идентификатор кодека/Подсказка : MP3Продолжительность : 44 м.Вид битрейта : ПостоянныйБитрейт : 128 Кбит/секКаналы : 2 каналаЧастота : 48,0 КГцМетод сжатия : С потерямиРазмер потока : 41,2 Мбайт (7%)Выравнивание : Соединение по промежуткамПродолжительность промежутка : 40 мс. (1,00 видеокадр)Время предзагрузки промежутка : 384 ms
Релиз: Roumek

Скриншоты

Other forum [Profile] [PM]
Display posts from previous:    
Reply to topic

The time now is: Today 06:18

All times are GMT + 3 Hours



You cannot post new topics in this forum
You cannot reply to topics in this forum
You cannot edit your posts in this forum
You cannot delete your posts in this forum
You cannot vote in polls in this forum
You cannot attach files in this forum
You cannot download files in this forum