Today is a free download without charge Download

Странная жизнь Тимоти Грина / The Odd Life of Timothy Green (Питер Хеджес) [2012.., США, Walt Disney Pictures, Фэнтези, драма, комедия, DVD9]

Reply to topic
 
Author
Message

Meshanik ®

Gender:

Longevity: 8 years 10 months

Posts: 3866

Location: Los Angeles

Торрент-статистика

Post 04-Dec-2012 22:37

[Quote]

Странная жизнь Тимоти Грина / The Odd Life of Timothy Green- «He's a force of nature.»- Русское название: Странная жизнь Тимоти Грина
Оригинальное название: The Odd Life of Timothy Green
Год выпуска: 2012
Производство: США, Walt Disney Pictures
Жанр: Фэнтези, драма, комедия
Продолжительность: 01:40:21
Перевод: Дублированный
Субтитры: Вшитые отключаемые
Язык субтитров: Русский, английский, французский, польский, нидерландский, латышский, литовский, эстонский, арабский-Дата мировой премьеры: 15 августа 2012
Дата выхода DVD релиза: 11 декабря 2012
Дата выхода Blu-Ray релиза: 11 декабря 2012-Режиссер: Питер Хеджес
Продюсер: Скотт Сандерс, Джеймс Уитакер, Ахмет Заппа
В ролях: Дженнифер Гарнер, Джоэл Эдгертон, С.Дж. Адамс, Одейя Раш, Шохре Агдашлу, Розмари ДеУитт, Дэвид Морс, М. Эммет Уолш, Лоис Смит, Лин-Мануэль Миранда-Описание фильма:
Одна пара потеряла последнюю надежду зачать ребенка, но однажды происходит чудо — младенец появляется на свет. Но он оказывается не тем, кем кажется на первый взгляд…-
Возрастные ограничения: 12+ |зрителям, достигшим 12 лет|-Качество видео: DVD9
Видеокодек: MPEG 2
Битрейт видео: ~5670 Кбит/сек
Размер кадра: [email protected]
Аудио #1: AC3, 6 ch, 384 Кбит/сек, английский
Аудио #2: AC3, 6 ch, 384 Кбит/сек, французский
Аудио #3: AC3, 6 ch, 384 Кбит/сек, польский
Аудио #4: AC3, 6 ch, 384 Кбит/сек, Русский
-

Дополнительно

Удаленные сцены, Музыкальный видеоклип

DVDInfo:

Title: Strannaya.zhizn.Timoti.Grina.2012.DVD9
Size: 7.23 Gb ( 7 575 974,00 KBytes ) - DVD-9
Enabled regions: 1, 2, 3, 4, 5, 6, 7, 8
VTS_01 :
Play Length: 00:00:01
Video: PAL 16:9 (720x576) VBR, Auto Pan&Scan
Audio:
Not specified (Dolby AC3, 2 ch)
Not specified (Dolby AC3, 2 ch)
Not specified (Dolby AC3, 2 ch)
Not specified (Dolby AC3, 2 ch)
Subtitles:
Not specified
Not specified
Not specified
Not specified
Not specified
Not specified
Not specified
Not specified
Not specified
Not specified
Not specified
Not specified
Not specified
Not specified
Not specified
Not specified
VTS_02 :
Play Length: 00:00:17+{00:00:00}
Video: PAL 16:9 (720x576) VBR, Auto Pan&Scan
Audio:
English (Dolby AC3, 6 ch)
Subtitles:
Francais
Polish
Russian
Nederlands
Estonian
Lithuanian
Latvian
Arabic
VTS_03 :
Play Length: 00:04:04+{00:00:00}+00:04:12+00:04:12+{00:03:41}
Video: PAL 16:9 (720x576) VBR, Auto Letterboxed
Audio:
English (Dolby AC3, 2 ch)
Francais (Dolby AC3, 2 ch)
Polish (Dolby AC3, 2 ch)
Russian (Dolby AC3, 2 ch)
Nederlands (Dolby AC3, 2 ch)
Arabic (Dolby AC3, 2 ch)
Subtitles:
English
Francais
Polish
Russian
Nederlands
Arabic
VTS_04 :
Play Length: 00:00:12
Video: PAL 16:9 (720x576) VBR, Auto Letterboxed
Audio:
English (Dolby AC3, 6 ch)
VTS_05 :
Play Length: 01:40:21+00:00:15+00:00:05+00:00:15+{00:00:00}
Video: PAL 16:9 (720x576) VBR, Auto Letterboxed
Audio:
English (Dolby AC3, 6 ch)
Francais (Dolby AC3, 6 ch)
Polish (Dolby AC3, 6 ch)
Russian (Dolby AC3, 6 ch)
Subtitles:
English
English
Francais
Polish
Russian
Nederlands
Estonian
Lithuanian
Latvian
Arabic
Francais
Polish
Russian
VTS_06 :
Play Length: 00:00:00
Video: PAL 4:3 (720x576) VBR
VTS_07 :
Play Length: 00:04:31+{00:00:00}
Video: PAL 16:9 (720x576) VBR, Auto Letterboxed
Audio:
English (Dolby AC3, 2 ch)
VTS_08 :
Play Length: 00:05:44+{00:02:01}+{00:00:40}+{00:00:47}+{00:01:05}+{00:00:33}
Video: PAL 16:9 (720x576) VBR, Auto Letterboxed
Audio:
English (Dolby AC3, 2 ch)
English (Dolby AC3, 2 ch)
Subtitles:
Francais
Polish
Russian
Nederlands
Arabic
Francais
Polish
Russian
Nederlands
Arabic
VTS_09 :
Play Length: 00:00:00+{00:00:00}
Video: PAL 16:9 (720x576) VBR, Auto Letterboxed
VTS_10 :
Play Length: 00:00:00
Video: PAL 16:9 (720x576) VBR, Auto Letterboxed
* Menus Information *
VIDEO_TS Menu
Video:
PAL 16:9 (720x576) VBR
Auto Pan&Scan
English Language Unit :
Title Menu
VTS_01 Menu
Video:
PAL 16:9 (720x576) VBR
Auto Pan&Scan
English Language Unit :
Root Menu
VTS_02 Menu
Video:
PAL 16:9 (720x576) VBR
Auto Pan&Scan
English Language Unit :
Root Menu
VTS_03 Menu
Video:
PAL 16:9 (720x576) VBR
Auto Pan&Scan
English Language Unit :
Root Menu
VTS_04 Menu
Video:
PAL 16:9 (720x576) VBR
Auto Pan&Scan
English Language Unit :
Root Menu
Angle menu
Chapter (PTT) Menu
VTS_05 Menu
Video:
PAL 4:3 (720x576) VBR
English Language Unit :
Root Menu
Chapter (PTT) Menu
VTS_06 Menu
Video:
PAL 16:9 (720x576) VBR
Auto Pan&Scan
Audio:
Not specified (Dolby AC3, 2 ch)
English Language Unit :
Root Menu
Angle menu
VTS_07 Menu
Video:
PAL 16:9 (720x576) VBR
Auto Letterboxed
English Language Unit :
Root Menu
VTS_08 Menu
Video:
PAL 4:3 (720x576) VBR
English Language Unit :
Root Menu
VTS_09 Menu
Video:
PAL 4:3 (720x576) VBR
English Language Unit :
Root Menu
VTS_10 Menu
Video:
PAL 4:3 (720x576) VBR
English Language Unit :
Root Menu

MediaInfo:

Общее
Полное имя : Strannaya.zhizn.Timoti.Grina.2012.DVD9\VIDEO_TS\VTS_05_1.VOB
Формат : MPEG-PS
Размер файла : 1024 Мбайт
Продолжительность : 19 м.
Режим общего битрейта : Переменный
Общий поток : 7352 Кбит/сек
Видео
Идентификатор : 224 (0xE0)
Формат : MPEG Video
Версия формата : Version 2
Профиль формата : [email protected]
Параметр BVOP формата : Да
Параметр матрицы формата : Выборочная
Параметр GOP формата : Variable
Продолжительность : 19 м.
Вид битрейта : Переменный
Битрейт : 5670 Кбит/сек
Ширина : 720 пикселей
Высота : 576 пикселей
Соотношение сторон : 16:9
Частота кадров : 25,000 кадров/сек
Стандарт вещания : Component
Цветовое пространство : YUV
Субдискретизация насыщенности : 4:2:0
Битовая глубина : 8 бит
Тип развёртки : Прогрессивная
Порядок развёртки : Верхнее поле первое
Метод сжатия : С потерями
Бит/(Пиксели*Кадры) : 0.547
Размер потока : 790 Мбайт (77%)
Основные цвета : BT.601 PAL
Характеристики трансфера : BT.470 System B, BT.470 System G
Коэффициенты матрицы : BT.601
Аудио #1
Идентификатор : 189 (0xBD)-128 (0x80)
Формат : AC-3
Формат/Информация : Audio Coding 3
Расширение режима : CM (complete main)
Параметр Endianness формата : Big
Режим смешивания : DVD-Video
Продолжительность : 19 м.
Вид битрейта : Постоянный
Битрейт : 384 Кбит/сек
Каналы : 6 каналов
Расположение каналов : Front: L C R, Side: L R, LFE
Частота : 48,0 КГц
Битовая глубина : 16 бит
Метод сжатия : С потерями
Задержка видео : -50 мс.
Размер потока : 53,5 Мбайт (5%)
Аудио #2
Идентификатор : 189 (0xBD)-129 (0x81)
Формат : AC-3
Формат/Информация : Audio Coding 3
Расширение режима : CM (complete main)
Параметр Endianness формата : Big
Режим смешивания : DVD-Video
Продолжительность : 19 м.
Вид битрейта : Постоянный
Битрейт : 384 Кбит/сек
Каналы : 6 каналов
Расположение каналов : Front: L C R, Side: L R, LFE
Частота : 48,0 КГц
Битовая глубина : 16 бит
Метод сжатия : С потерями
Задержка видео : -50 мс.
Размер потока : 53,5 Мбайт (5%)
Аудио #3
Идентификатор : 189 (0xBD)-130 (0x82)
Формат : AC-3
Формат/Информация : Audio Coding 3
Расширение режима : CM (complete main)
Параметр Endianness формата : Big
Режим смешивания : DVD-Video
Продолжительность : 19 м.
Вид битрейта : Постоянный
Битрейт : 384 Кбит/сек
Каналы : 6 каналов
Расположение каналов : Front: L C R, Side: L R, LFE
Частота : 48,0 КГц
Битовая глубина : 16 бит
Метод сжатия : С потерями
Задержка видео : -50 мс.
Размер потока : 53,5 Мбайт (5%)
Аудио #4
Идентификатор : 189 (0xBD)-131 (0x83)
Формат : AC-3
Формат/Информация : Audio Coding 3
Расширение режима : CM (complete main)
Параметр Endianness формата : Big
Режим смешивания : DVD-Video
Продолжительность : 19 м.
Вид битрейта : Постоянный
Битрейт : 384 Кбит/сек
Каналы : 6 каналов
Расположение каналов : Front: L C R, Side: L R, LFE
Частота : 48,0 КГц
Битовая глубина : 16 бит
Метод сжатия : С потерями
Задержка видео : -50 мс.
Размер потока : 53,5 Мбайт (5%)

Рейтинг MPAA:

Рейтинг PG - Рекомендуется присутствие родителей
Этот рейтинг получают фильмы, которые требуют внимания со стороны родителей. Возможно некоторые сцены из картины родители посчитают неприемлемыми для просмотра своими детьми. Но в фильме точно отсутствуют сексуальные эпизоды и сцены с использованием наркотиков. Рейтинг PG никогда не присвоят ленте жанра хоррор или триллер.

Скриншоты меню:

       
Скриншоты:        
Other forum [Profile] [PM]
Similar theme
Forum Topic Author Torrent Replies Last Post
./templates/default/images/folder_dl.gif Обучающее видео [Advanced Training] Курс Cisco TSHOOT 2.0 - Поиск и устранение неисправностей в сетях Cisco (Troubleshooting and Maintaining Cisco IP Networks) [2014, RUS] Omen
1 | 0

0 | 3549

278

2015-05-16 12:00
Omen Latest
./templates/default/images/folder_dl.gif Справочники, энциклопедии и словари Библиотека школьных словарей - Егорова Т. В. (сост.) - Словарь иностранных слов современного русского языка. 100 000 слов и выражений [2014, PDF, RUS] Omen
1 | 0

0 | 741

1

2015-09-26 03:00
Omen Latest
./templates/default/images/folder_dl.gif Обучающее видео Николай Ягодкин | Техника запоминания 100 иностранных слов в час (2013) DVDRip [H.264] Omen
2 | 0

0 | 4702

58

2017-01-14 01:00
Omen Latest
./templates/default/images/folder_dl.gif Компьютерная литература М. Дубаков | Создание Web-страниц. Искусство верстки (2004) [DJVU] }{@R0N
1 | 0

0 | 536

1

2018-10-16 20:39
}{@R0N Latest
Display posts from previous:    
Reply to topic

The time now is: Today 04:57

All times are GMT + 3 Hours



You cannot post new topics in this forum
You cannot reply to topics in this forum
You cannot edit your posts in this forum
You cannot delete your posts in this forum
You cannot vote in polls in this forum
You cannot attach files in this forum
You cannot download files in this forum