Today is a free download without charge Download

Эволюция Борна / The Bourne Legacy (Тони Гилрой / Tony Gilroy) [2012 г., боевик, триллер, приключения,] BDRip 1080p

Reply to topic
 
Author
Message

DeadMmau5 ®

Gender:

Longevity: 8 years 6 months

Posts: 155

Location: Поскот

Торрент-статистика

Post 04-Dec-2012 17:58

[Quote]

Эволюция Борна
«В игре всегда несколько фигур»
Оригинальное название: The Bourne Legacy
Год выхода: 2012
Жанр: боевик, триллер, детектив, приключения
Режиссер: Тони Гилрой
В ролях: Джереми Реннер, Рейчел Вайс, Эдвард Нортон, Джоан Аллен, Альберт Финни, Скотт Гленн, Стейси Кич, Донна Мерфи, Майкл Чернус, Кори Столл
О фильме: В игре всегда несколько фигур. Одна из них — Джейсон Борн, другая — совершенный агент Аарон Кросс. Их возможности безграничны. Но даже у идеального оружия бывают сбои…

Выпущено: США, Universal Pictures
Продолжительность: 02:15:02
Озвучивание: Дублированное [лицензия]
Файл
Формат: MKV
Качество: BDRip (1080p)
Видео: MPEG-4 AVC, 14.4 Мбит/с, 1920x800, 23.976 кадр/c
Аудио: Русский (AC3, 6 ch, 384 Кбит/c), английский (DTS, 6 ch, 1536 Кбит/с)
Размер: 15.35 ГБ
Субтитры: Русские, английские---

Media Info

The.Bourne.Legacy.2012.BluRay.1080p.x264.Rus.Eng-CHD.mkv
Format : Matroska
Format version : Version 2
File size : 15.3 GiB
Duration : 2h 15mn
Overall bit rate : 16.3 Mbps
Movie name : The.Bourne.Legacy.2012.by.RenQian
Encoded date : UTC 2012-12-04 12:30:04
Writing application : mkvmerge v3.4.0 ('Rapunzel') сборка от May 15 2010 09:38:20
Writing library : libebml v0.8.0 + libmatroska v0.9.0
Video
ID : 1
Format : AVC
Format/Info : Advanced Video Codec
Format profile : [email protected]
Format settings, CABAC : Yes
Format settings, ReFrames : 5 frames
Codec ID : V_MPEG4/ISO/AVC
Duration : 2h 15mn
Bit rate : 14.4 Mbps
Width : 1 920 pixels
Height : 800 pixels
Display aspect ratio : 2.40:1
Frame rate : 23.976 fps
Color space : YUV
Chroma subsampling : 4:2:0
Bit depth : 8 bits
Scan type : Progressive
Bits/(Pixel*Frame) : 0.391
Stream size : 13.3 GiB (86%)
Title : The.Bourne.Legacy.2012.BluRay.1080p.DTS.x264-CHD
Writing library : x264 core 129 r2230 1cffe9f
Encoding settings : cabac=1 / ref=5 / deblock=1:-3:-3 / analyse=0x3:0x113 / me=umh /
subme=11 / psy=1 / psy_rd=1.05:0.10 / mixed_ref=1 / me_range=48 / chroma_me=1 / trellis=2 /
8x8dct=1 / cqm=0 / deadzone=21,11 / fast_pskip=0 / chroma_qp_offset=-2 / threads=12 /
lookahead_threads=2 / sliced_threads=0 / nr=0 / decimate=1 / interlaced=0 / bluray_compat=0 /
constrained_intra=0 / bframes=7 / b_pyramid=2 / b_adapt=2 / b_bias=0 / direct=3 / weightb=1 /
open_gop=0 / weightp=2 / keyint=250 / keyint_min=23 / scenecut=40 / intra_refresh=0 /
rc_lookahead=40 / rc=2pass / mbtree=0 / bitrate=14393 / ratetol=1.0 / qcomp=0.70 / qpmin=0 /
qpmax=69 / qpstep=4 / cplxblur=20.0 / qblur=0.5 / vbv_maxrate=40000 / vbv_bufsize=30000 /
nal_hrd=none / ip_ratio=1.40 / pb_ratio=1.30 / aq=2:1.00
Language : English
Audio #1
ID : 2
Format : AC-3
Format/Info : Audio Coding 3
Mode extension : CM (complete main)
Codec ID : A_AC3
Duration : 2h 15mn
Bit rate mode : Constant
Bit rate : 384 Kbps
Channel(s) : 6 channels
Channel positions : Front: L C R, Side: L R, LFE
Sampling rate : 48.0 KHz
Bit depth : 16 bits
Compression mode : Lossy
Stream size : 371 MiB (2%)
Language : Russian
Audio #2
ID : 3
Format : DTS
Format/Info : Digital Theater Systems
Codec ID : A_DTS
Duration : 2h 15mn
Bit rate mode : Constant
Bit rate : 1 510 Kbps
Channel(s) : 6 channels
Channel positions : Front: L C R, Side: L R, LFE
Sampling rate : 48.0 KHz
Bit depth : 24 bits
Compression mode : Lossy
Delay relative to video : 11ms
Stream size : 1.42 GiB (9%)
Title : DTS 5.1 1509k
Language : English
Menu
00:00:00.000 : en未命名)
00:08:43.689 : en未命名)
00:14:26.615 : en未命名)
00:19:57.487 : en未命名)
00:27:53.296 : en未命名)
00:34:18.264 : en未命名)
00:42:52.403 : en未命名)
00:47:57.374 : en未命名)
00:53:56.066 : en未命名)
01:00:29.167 : en未命名)
01:07:36.635 : en未命名)
01:14:36.972 : en未命名)
01:22:39.204 : en未命名)
01:28:37.687 : en未命名)
01:36:39.043 : en未命名)
01:41:05.684 : en未命名)
01:45:07.968 : en未命名)
01:52:15.520 : en未命名)
02:00:07.283 : en未命名)
02:05:06.415 : en未命名)
--- ---                

_________________
Other forum [Profile] [PM]
Display posts from previous:    
Reply to topic

The time now is: Today 12:30

All times are GMT + 3 Hours



You cannot post new topics in this forum
You cannot reply to topics in this forum
You cannot edit your posts in this forum
You cannot delete your posts in this forum
You cannot vote in polls in this forum
You cannot attach files in this forum
You cannot download files in this forum