Today is a free download without charge Download

Римские приключения / To Rome with Love (Вуди Аллен) [2012.., США, Италия, Испания, Мелодрама, Комедия, DVD9]

Reply to topic
 
Author
Message

Meshanik ®

Gender:

Longevity: 8 years 10 months

Posts: 3866

Location: Los Angeles

Торрент-статистика

Post 04-Dec-2012 02:19

[Quote]

Римские приключения / To Rome with Love- Русское название: Римские приключения
Оригинальное название: To Rome with Love
Год выпуска: 2012
Производство: США, Италия, Испания
Жанр: Мелодрама, Комедия
Продолжительность: 01:46:57
Перевод: Дублированный [Лицензия]
Субтитры: Отсутствуют-Режиссер: Вуди Аллен
В ролях: Вуди Аллен, Алек Болдуин, Роберто Бениньи, Пенелопа Крус, Джуди Дэвис, Джесси Айзенберг, Грета Гервиг, Эллен Пейдж, Флавио Паренти, Элисон Пилл-Описание фильма:
Комедия, действие которой происходит в одном из самых прекрасных городов мира. Мы встретим известного американского архитектора, переживающего вторую юность, простого обывателя, неожиданно проснувшегося знаменитым, молодоженов из провинции, каждого из которых ждут романтические открытия, и американского оперного постановщика, задумавшего вывести на сцену поющего работника похоронного бюро…- -Дата мировой премьеры: 20 апреля 2012
Дата российской премьеры: 5 июля 2012, «Централ Партнершип»
Дата выхода DVD релиза: 6 декабря 2012, «CD Land»-Качество видео: DVD9
Видеокодек: MPEG-2
Битрейт видео: ~7282 kbps
Размер кадра: PAL 16:9 ([email protected]х576)
Аудио: AC3, 6 ch, 448 kbps (Русский)
-

MediaInfo:

Общее
Полное имя : Rimskie.priklyucheniya.2012.D.DVD9\VIDEO_TS\VTS_04_1.VOB
Формат : MPEG-PS
Размер файла : 1024 Мбайт
Продолжительность : 18 м.
Режим общего битрейта : Переменный
Общий поток : 7887 Кбит/сек
Видео
Идентификатор : 224 (0xE0)
Формат : MPEG Video
Версия формата : Version 2
Профиль формата : [email protected]
Параметр BVOP формата : Да
Параметр матрицы формата : Выборочная
Продолжительность : 18 м.
Вид битрейта : Переменный
Битрейт : 7282 Кбит/сек
Максимальный битрейт : 8000 Кбит/сек
Ширина : 720 пикселей
Высота : 576 пикселей
Соотношение сторон : 16:9
Частота кадров : 25,000 кадров/сек
Стандарт вещания : PAL
Цветовое пространство : YUV
Субдискретизация насыщенности : 4:2:0
Битовая глубина : 8 бит
Тип развёртки : Прогрессивная
Метод сжатия : С потерями
Бит/(Пиксели*Кадры) : 0.702
Размер потока : 945 Мбайт (92%)
Аудио
Идентификатор : 189 (0xBD)-128 (0x80)
Формат : AC-3
Формат/Информация : Audio Coding 3
Расширение режима : CM (complete main)
Режим смешивания : DVD-Video
Продолжительность : 18 м.
Вид битрейта : Постоянный
Битрейт : 448 Кбит/сек
Каналы : 6 каналов
Расположение каналов : Front: L C R, Side: L R, LFE
Частота : 48,0 КГц
Битовая глубина : 16 бит
Метод сжатия : С потерями
Размер потока : 58,1 Мбайт (6%)
Меню

DVDInfo:

Title: Rimskie.priklyucheniya.2012.D.DVD9
Size: 5.90 Gb ( 6 190 186,00 KBytes ) - DVD-9
Enabled regions: 1, 2, 3, 4, 5, 6, 7, 8
VTS_01 :
Play Length: 00:00:19
Video: PAL 4:3 (720x576) VBR
Audio:
Not specified (Dolby AC3, 2 ch)
VTS_02 :
Play Length: 00:01:59
Video: PAL 16:9 (720x576) VBR, Auto Letterboxed
Audio:
Not specified (Dolby AC3, 2 ch)
Not specified (Dolby AC3, 2 ch)
Subtitles:
English
VTS_03 :
Play Length: 00:00:15
Video: PAL 16:9 (720x576) VBR, Auto Letterboxed
Audio:
Not specified (Dolby AC3, 2 ch)
Not specified (Dolby AC3, 2 ch)
Subtitles:
English
VTS_04 :
Play Length: 01:46:57
Video: PAL 16:9 (720x576) VBR, Auto Letterboxed
Audio:
Russian (Dolby AC3, 6 ch)
* Menus Information *
VIDEO_TS Menu
Video:
PAL 16:9 (720x576) VBR
Auto Pan&Scan, Auto Letterboxed
English Language Unit :
Title Menu
VTS_01 Menu
Video:
PAL 16:9 (720x576) VBR
Auto Letterboxed
Audio:
Not specified (Dolby AC3, 2 ch)
English Language Unit :
Root Menu
VTS_02 Menu
Video:
PAL 4:3 (720x576) VBR
English Language Unit :
Root Menu
VTS_03 Menu
Video:
PAL 4:3 (720x576) VBR
English Language Unit :
Root Menu
VTS_04 Menu
Video:
PAL 4:3 (720x576) VBR
English Language Unit :
Root Menu

Меню DVD:

   

Скриншоты:

       
       
Other forum [Profile] [PM]
Display posts from previous:    
Reply to topic

The time now is: Today 20:18

All times are GMT + 3 Hours



You cannot post new topics in this forum
You cannot reply to topics in this forum
You cannot edit your posts in this forum
You cannot delete your posts in this forum
You cannot vote in polls in this forum
You cannot attach files in this forum
You cannot download files in this forum