Today is a free download without charge Download

Темный рыцарь: Возрождение легенды / The Dark Knight Rises (Кристофер Нолан) [2012.., США, Великобритания, Фантастика, Боевик, Триллер, DVD9]

Reply to topic
 
Author
Message

Meshanik ®

Gender:

Longevity: 8 years 10 months

Posts: 3866

Location: Los Angeles

Торрент-статистика

Post 04-Dec-2012 01:48

[Quote]

Темный рыцарь: Возрождение легенды / The Dark Knight Rises-
Русское название: Темный рыцарь: Возрождение легенды
Оригинальное название: The Dark Knight Rises
Год выпуска: 2012
Производство: США, Великобритания
Жанр: Фантастика, Боевик, Триллер
Продолжительность: 02:37:48
Перевод: Дублированный [Лицензия]
Субтитры: Вшитые отключаемые
Язык субтитров: Английский, Эстонский, Латышский, Литовский, Португальский, Русский-Режиссер: Кристофер Нолан
Актеры: Кристиан Бэйл, Том Харди, Энн Хэтэуэй, Джозеф Гордон-Левитт, Марион Котийяр, Гари Олдман, Морган Фриман, Майкл Кейн, Мэтью Модайн, Бен Мендельсон-Описание фильма:
Восемь лет назад Бэтмен растворился в ночи, превратившись из героя в беглеца. Приняв на себя вину за смерть прокурора Харви Дента, Темный рыцарь пожертвовал всем. Вместе с комиссаром Гордоном они решили, что так будет лучше для всех. Пока преступность была раздавлена антикриминальным актом Дента, ложь действовала. Но с появлением хитрой воровки с загадочным прошлым всё меняется. Тем не менее, еще опаснее становится появление террориста Бэйна, чье лицо закрыто маской. Он разворачивает в Готэме чудовищную деятельность, вынуждая Брюса Уэйна выйти из импровизированного изгнания. Однако даже надев свой костюм, Бэтмен может проиграть Бэйну.- -Дата мировой премьеры: 16 июля 2012
Дата российской премьеры: 26 июля 2012, «Каро-Премьер»
Дата выхода DVD релиза: 28 ноября 2012, «CP Дистрибуция»-Качество видео: DVD9
Видеокодек: MPEG-2
Битрейт видео: ~4912 kbps
Размер кадра: PAL 16:9 ([email protected]х576)
Аудио 1: AC3, 6 ch, 384 kbps (Английский)
Аудио 2: AC3, 2 ch, 192 kbps (Английский)
Аудио 3: AC3, 6 ch, 384 kbps (Русский)
Аудио 4: AC3, 6 ch, 384 kbps (Украинский)
-

MediaInfo:

Общее
Полное имя : Temnyj.rycar.Vozrozhdenie.legendy.2012.D.DVD9\VIDEO_TS\VTS_01_2.VOB
Формат : MPEG-PS
Размер файла : 1024 Мбайт
Продолжительность : 22 м.
Режим общего битрейта : Переменный
Общий поток : 6383 Кбит/сек
Видео
Идентификатор : 224 (0xE0)
Формат : MPEG Video
Версия формата : Version 2
Профиль формата : [email protected]
Параметр BVOP формата : Да
Параметр матрицы формата : Выборочная
Продолжительность : 22 м.
Вид битрейта : Переменный
Битрейт : 4912 Кбит/сек
Максимальный битрейт : 7500 Кбит/сек
Ширина : 720 пикселей
Высота : 576 пикселей
Соотношение сторон : 16:9
Частота кадров : 25,000 кадров/сек
Стандарт вещания : PAL
Цветовое пространство : YUV
Субдискретизация насыщенности : 4:2:0
Битовая глубина : 8 бит
Тип развёртки : Чересстрочная
Порядок развёртки : Верхнее поле первое
Метод сжатия : С потерями
Бит/(Пиксели*Кадры) : 0.474
Размер потока : 788 Мбайт (77%)
Аудио #1
Идентификатор : 189 (0xBD)-128 (0x80)
Формат : AC-3
Формат/Информация : Audio Coding 3
Расширение режима : CM (complete main)
Режим смешивания : DVD-Video
Продолжительность : 22 м.
Вид битрейта : Постоянный
Битрейт : 384 Кбит/сек
Каналы : 6 каналов
Расположение каналов : Front: L C R, Side: L R, LFE
Частота : 48,0 КГц
Битовая глубина : 16 бит
Метод сжатия : С потерями
Задержка видео : -64 мс.
Размер потока : 61,6 Мбайт (6%)
Аудио #2
Идентификатор : 189 (0xBD)-129 (0x81)
Формат : AC-3
Формат/Информация : Audio Coding 3
Профиль формата : Dolby Digital
Расширение режима : CM (complete main)
Режим смешивания : DVD-Video
Продолжительность : 22 м.
Вид битрейта : Постоянный
Битрейт : 192 Кбит/сек
Каналы : 2 канала
Расположение каналов : Front: L R
Частота : 48,0 КГц
Битовая глубина : 16 бит
Метод сжатия : С потерями
Задержка видео : -32 мс.
Размер потока : 30,8 Мбайт (3%)
Аудио #3
Идентификатор : 189 (0xBD)-130 (0x82)
Формат : AC-3
Формат/Информация : Audio Coding 3
Расширение режима : CM (complete main)
Режим смешивания : DVD-Video
Продолжительность : 22 м.
Вид битрейта : Постоянный
Битрейт : 384 Кбит/сек
Каналы : 6 каналов
Расположение каналов : Front: L C R, Side: L R, LFE
Частота : 48,0 КГц
Битовая глубина : 16 бит
Метод сжатия : С потерями
Задержка видео : -32 мс.
Размер потока : 61,6 Мбайт (6%)
Аудио #4
Идентификатор : 189 (0xBD)-131 (0x83)
Формат : AC-3
Формат/Информация : Audio Coding 3
Расширение режима : CM (complete main)
Режим смешивания : DVD-Video
Продолжительность : 22 м.
Вид битрейта : Постоянный
Битрейт : 384 Кбит/сек
Каналы : 6 каналов
Расположение каналов : Front: L C R, Side: L R, LFE
Частота : 48,0 КГц
Битовая глубина : 16 бит
Метод сжатия : С потерями
Задержка видео : -32 мс.
Размер потока : 61,6 Мбайт (6%)
Текст #1
Идентификатор : 189 (0xBD)-32 (0x20)
Формат : RLE
Формат/Информация : Run-length encoding
Режим смешивания : DVD-Video
Продолжительность : 22 м.
Задержка видео : 1 с. 120 мс.
Текст #2
Идентификатор : 189 (0xBD)-33 (0x21)
Формат : RLE
Формат/Информация : Run-length encoding
Режим смешивания : DVD-Video
Продолжительность : 22 м.
Задержка видео : 1 с. 120 мс.
Текст #3
Идентификатор : 189 (0xBD)-34 (0x22)
Формат : RLE
Формат/Информация : Run-length encoding
Режим смешивания : DVD-Video
Продолжительность : 22 м.
Задержка видео : 1 с. 120 мс.
Текст #4
Идентификатор : 189 (0xBD)-35 (0x23)
Формат : RLE
Формат/Информация : Run-length encoding
Режим смешивания : DVD-Video
Продолжительность : 22 м.
Задержка видео : 1 с. 120 мс.
Текст #5
Идентификатор : 189 (0xBD)-36 (0x24)
Формат : RLE
Формат/Информация : Run-length encoding
Режим смешивания : DVD-Video
Продолжительность : 22 м.
Задержка видео : 1 с. 120 мс.
Текст #6
Идентификатор : 189 (0xBD)-37 (0x25)
Формат : RLE
Формат/Информация : Run-length encoding
Режим смешивания : DVD-Video
Продолжительность : 22 м.
Задержка видео : 1 с. 120 мс.
Меню

DVDInfo:

Title: Temnyj.rycar.Vozrozhdenie.legendy.2012.D.DVD9
Size: 7.00 Gb ( 7 343 212,00 KBytes ) - DVD-9
Enabled regions: 1, 2, 3, 4, 5, 6
VTS_01 :
Play Length: 02:37:48+00:00:00
Video: PAL 16:9 (720x576) VBR, Auto Letterboxed
Audio:
English (Dolby AC3, 6 ch)
English (Dolby AC3, 2 ch)
Russian (Dolby AC3, 6 ch)
Ukrainian (Dolby AC3, 6 ch)
Subtitles:
English
Estonian
Latvian
Lithuanian
Portugues
Russian
Russian
VTS_02 :
Play Length: 00:00:10
Video: PAL 16:9 (720x576) VBR, Auto Letterboxed
Audio:
Not specified (Dolby AC3, 6 ch)
Subtitles:
Not specified
* Menus Information *
VIDEO_TS Menu
Video:
PAL 16:9 (720x576) VBR
Auto Pan&Scan
Language Unit :
Title Menu
VTS_01 Menu
Video:
PAL 16:9 (720x576) VBR
Auto Pan&Scan
Audio:
Not specified (Dolby AC3, 6 ch)
English Language Unit :
Root Menu
VTS_02 Menu
Video:
NTSC 4:3 (720x480) VBR
Auto Pan&Scan, Auto Letterboxed
Language Unit :
Root Menu

Меню DVD:

       

Скриншоты:

       
       
Other forum [Profile] [PM]
Display posts from previous:    
Reply to topic

The time now is: Today 12:52

All times are GMT + 3 Hours



You cannot post new topics in this forum
You cannot reply to topics in this forum
You cannot edit your posts in this forum
You cannot delete your posts in this forum
You cannot vote in polls in this forum
You cannot attach files in this forum
You cannot download files in this forum