Today is a free download without charge Download

Udemy | Продвинутая Java (2018) PCRec [H.264/720p-LQ]

Reply to topic
 
Author
Message

Omen ®

Longevity: 7 years 10 months

Posts: 181087

Торрент-статистика

Post 03-Dec-2012 18:28

[Quote]

Udemy | Продвинутая Java - Автор (режиссер): Udemy
Жанр: Программирование, Java
Описание:
Курс ориентирован на тех людей, кто уже знаком с языком программирования Java и хотел бы углубить свои знания и изучить продвинутые темы этого языка программирования. В курсе детально и подробно объясняются важнейшие темы Java и программирования в целом, которые необходимы для работы в индустрии. После прохождения этого курса вы узнаете много нового о Java и о компьютерных науках в целом.
Продолжительность: 10:34:59
Качество видео: PCRec
Видео: AVC/H.264, 1280x720, ~55-148
Аудио: AAC, 2 ch, 127-189

Mediainfo:

Общее
Полное имя : .\02 Java Collections Framework Коллекции\002 Динамический массив ArrayList - Введение.mp4
Формат : MPEG-4
Профиль формата : Base Media
Идентификатор кодека : isom (isom/iso2/avc1/mp41)
Размер файла : 30,9 Мбайт
Продолжительность : 19 м. 42 с.
Режим общего битрейта : Переменный
Общий поток : 219 Кбит/сек
Название фильма : "Udemy Video Asset"
Программа кодирования : Lavf57.71.100
Видео
Идентификатор : 1
Формат : AVC
Формат/Информация : Advanced Video Codec
Профиль формата : [url=mailto:[email protected]][email protected][/url]
Настройки формата : CABAC / 4 Ref Frames
Параметр CABAC формата : Да
Параметр RefFrames формата : 4 кадра
Идентификатор кодека : avc1
Идентификатор кодека/Информация : Advanced Video Coding
Продолжительность : 19 м. 42 с.
Битрейт : 82,9 Кбит/сек
Ширина : 1280 пикселей
Высота : 720 пикселей
Соотношение сторон : 16:9
Режим частоты кадров : Постоянный
Частота кадров : 30,000 кадров/сек
Цветовое пространство : YUV
Субдискретизация насыщенности : 4:2:0
Битовая глубина : 8 бит
Тип развёртки : Прогрессивная
Бит/(Пиксели*Кадры) : 0.003
Размер потока : 11,7 Мбайт (38%)
Библиотека кодирования : x264 core 148
Настройки программы : cabac=1 / ref=2 / deblock=1:-1:-1 / analyse=0x3:0x113 / me=hex / subme=4 / psy=1 / psy_rd=1.00:0.15 / mixed_ref=0 / me_range=16 / chroma_me=1 / trellis=1 / 8x8dct=1 / cqm=0 / deadzone=21,11 / fast_pskip=1 / chroma_qp_offset=-1 / threads=2 / lookahead_threads=1 / sliced_threads=0 / nr=0 / decimate=1 / interlaced=0 / bluray_compat=0 / constrained_intra=0 / bframes=3 / b_pyramid=2 / b_adapt=1 / b_bias=0 / direct=1 / weightb=1 / open_gop=0 / weightp=1 / keyint=250 / keyint_min=25 / scenecut=40 / intra_refresh=0 / rc_lookahead=20 / rc=crf / mbtree=1 / crf=23.0 / qcomp=0.60 / qpmin=0 / qpmax=69 / qpstep=4 / vbv_maxrate=3000 / vbv_bufsize=2000 / crf_max=0.0 / nal_hrd=none / filler=0 / ip_ratio=1.40 / aq=1:1.00
Аудио
Идентификатор : 2
Формат : AAC
Формат/Информация : Advanced Audio Codec
Профиль формата : LC
Идентификатор кодека : mp4a-40-2
Продолжительность : 19 м. 42 с.
Вид битрейта : Переменный
Битрейт : 128 Кбит/сек
Каналы : 2 канала
Расположение каналов : Front: L R
Частота : 44,1 КГц
Частота кадров : 43,066 кадра/сек (1024 SPF)
Метод сжатия : С потерями
Размер потока : 17,9 Мбайт (58%)
Default : Да
AlternateGroup/String : 1

Учебный план этого курса:

Введение 00:09:00
Привет!
Java Collections Framework (Коллекции) 04:31:33
Динамический массив (ArrayList) - Введение
Динамический массив (ArrayList) - Как устроен?
Связный список (LinkedList) - Введение
Связный список (LinkedList) - Как устроен?
HashMap - Введение
LinkedHashMap и TreeMap
Множества (Set)
Методы hashcode() и equals()
Контракт hashcode() и equals()
HashMap - Как устроен?
Интерфейс Comparator
Интерфейс Comparable
Очередь (Queue)
Стек (Stack)
Интерфейс Iterable
Java Multithreading (Многопоточность) 04:25:44
Введение в многопоточность в Java
Ключевое слово volatile
Ключевое слово synchronized (I часть)
Ключевое слово synchronized (II часть)
Пул потоков (Thread pool)
Паттерн producer - consumer (I часть)
Методы wait() и notify()
Паттерн producer - consumer (II часть)
Класс CountDownLatch
Класс ReentrantLock
Семафор (Semaphore)
Взаимная блокировка (Deadlock)
Прерывание потоков
Callable и Future
Регулярные выражения (Regexp) 01:00:46
Регулярные выражения (часть I)
Регулярные выражения (часть II)
Классы Pattern и Matcher
Лямбда - выражения (Lambda expressions) 01:10:39
Лямбда - выражения (часть I)
Лямбда - выражения (часть II)
Скриншоты:
       
Other forum [Profile] [PM]
Display posts from previous:    
Reply to topic

The time now is: Today 17:30

All times are GMT + 3 Hours



You cannot post new topics in this forum
You cannot reply to topics in this forum
You cannot edit your posts in this forum
You cannot delete your posts in this forum
You cannot vote in polls in this forum
You cannot attach files in this forum
You cannot download files in this forum