Today is a free download without charge Download

The White Stripes: Under Great White Northern Lights [2010, Alternative Rock, Garage Rock, Blu-ray]

Reply to topic
 
Author
Message

Omen ®

Longevity: 6 years 8 months

Posts: 181090

Торрент-статистика

Post 03-Dec-2012 06:27

[Quote]

The White Stripes: Under Great White Northern Lights
Жанр: Alternative Rock, Garage Rock
Продолжительность: 01:32:09
Год выпуска: 2010
Описание:
The White Stripes -
Under Great White Northern Lights
tracklist:
01. Let's Shake Hands
02. Black Jack Davey
03. Black Math
04. Little Ghost
05. Blue Orchid
06. The Union Forever
07. Icky Thump
08. Apple Blossom
09. Wheels on the Bus
10. We Are Going to Be Friends
11. Let's Build a Home
12. Catfish Blues
13. Hello Operator
14. Screwdriver
15. Cold Cold Night
16. Slowly Turning into You
17. Lord Send Me an Angel
18. Jolene
19. I Want to Be the Boy to Warm Your Mother's Heart
20. Catch Hell Blues
21. I Just Don't Know What to Do with Myself
22. Death Letter
23. Prickly Thorn, but Sweetly Worn
24. Fell in Love with a Girl
25. When I Hear My Name
26. Wasting My Time
27. My Doorbell
28. Seven Nation Army
29. White Moon

Описание диска на сайте blu-ray. com:

текст

Documents the 2007 White Stripes tour across Canada. Hitting every province and territory, Jack and Meg White took their art-blues-rock to Iqaluit and Charlottetown, Edmonton and Toronto. The cameras not only document each unique concert experience but also capture the inner life of this mysterious musical duo.
Malloy intentionally has created a grimy, gritty look for large portions of this film, so trying to compare this Blu-ray's AVC encoded 1080p image (in a 1.78:1 aspect ratio) to the latest shiny summer blockbuster is unfair and unwarranted. The black and white footage is often extremely grainy, with low contrast. Most of the color footage is skewed toward the red side of the spectrum, as you will see from some of the screen captures included with the review. Both black and white and color segments also sport softness most of the time. What results is a visual experience completely in tune with the Stripes' down and dirty, unpretentious musical identity. This is not a glossy, surface deep documentary, and Malloy's choices here augment both the personal side of the Whites, warts and all, as well as the concert performances. This is certainly not Blu-ray reference material in and of itself, but it perfectly recreates Malloy's vision, for better or worse.
The two lossless audio options, DTS-HD Master Audio 5.1 and LPCM 2.0, are amazingly clear and robust, with astounding fidelity and snap. The only problem here is Jack White's often mumbling style with his lyrics, which render large portions of the concert material unintelligible. Unfortunately there are no subtitles available to help decipher what exactly he's singing about. But the music, often very spare and open, is presented with brilliant clarity and expert directionality. The larger concert venues are extremely well mixed, with wonderful use of surround channels to recreate the hall ambience and crowd sounds. The music is always front and center in the mix, both literally and figuratively, with the audience reactions never overpowering the duo. Some of the additional acts, like bagpipers and fiddlers, also sound wonderful. Some may not like the intentionally ragged sound of the Stripes, but these lossless audio tracks recreate their unkempt music in all its dissheveled glory.
О группе можно почитать:
http://ru.wikipedia.org/wiki/The_White_Stripes

обложка и пятак

(пятак самопальный)
Качество: Blu-ray
Контейнер: BDMV
Видео кодек: MPEG-4 AVC
Аудио кодек: LPCM, DTS-HD Master Audio
Видео: MPEG-4 AVC Video / 25999 kbps / 1080p / 23,976 fps / 16:9 / High Profile 4.1
Аудио 1: English / LPCM Audio / 2.0 / 48 kHz / 2304 kbps / 24-bit
Аудио 2: English / DTS-HD Master Audio / 5.1 / 48 kHz / 4208 kbps / 24-bit (DTS Core: 5.1 / 48 kHz / 1509 kbps / 24-bit)

Отчёт MediaInfo / BDInfo

Disc Title: The_White_Stripes__Under_Great_White_Northern_LightsDisc Size: 23 878 480 537 bytesProtection: AACSBD-Java: NoBDInfo: 0.5.8
Notes:
BDINFO HOME: Cinema Squid http://www.cinemasquid.com/blu-ray/tools/bdinfo
INCLUDES FORUMS REPORT FOR: AVS Forum Blu-ray Audio and Video Specifications Thread http://www.avsforum.com/avs-vb/showthread.php?t=1155731
********************PLAYLIST: 00000.MPLS********************
Код:
Total   Video
Title                                                           Codec   Length  Movie Size      Disc Size       Bitrate Bitrate Main Audio Track                          Secondary Audio Track
-----                                                           ------  ------- --------------  --------------  ------- ------- ------------------                        ---------------------
00000.MPLS                                                      AVC     1:32:09 23 701 604 352  23 878 480 537  34,29   26,00   LPCM 2.0 2304Kbps (48kHz/24-bit)          DTS-HD Master 5.1 4208Kbps (48kHz/24-bit)
Код:
DISC INFO:
Disc Title:     The_White_Stripes__Under_Great_White_Northern_Lights
Disc Size:      23 878 480 537 bytes
Protection:     AACS
BD-Java:        No
BDInfo:         0.5.8
PLAYLIST REPORT:
Name:                   00000.MPLS
Length:                 1:32:09.565 (h:m:s.ms)
Size:                   23 701 604 352 bytes
Total Bitrate:          34,29 Mbps
VIDEO:
Codec                   Bitrate             Description
-----                   -------             -----------
MPEG-4 AVC Video        25999 kbps          1080p / 23,976 fps / 16:9 / High Profile 4.1
AUDIO:
Codec                           Language        Bitrate         Description
-----                           --------        -------         -----------
LPCM Audio                      English         2304 kbps       2.0 / 48 kHz / 2304 kbps / 24-bit
DTS-HD Master Audio             English         4208 kbps       5.1 / 48 kHz / 4208 kbps / 24-bit (DTS Core: 5.1 / 48 kHz / 1509 kbps / 24-bit)
FILES:
Name            Time In         Length          Size            Total Bitrate
----            -------         ------          ----            -------------
00000.M2TS      0:00:00.000     1:32:09.565     23 701 604 352  34 291
CHAPTERS:
Number          Time In         Length          Avg Video Rate  Max 1-Sec Rate  Max 1-Sec Time  Max 5-Sec Rate  Max 5-Sec Time  Max 10Sec Rate  Max 10Sec Time  Avg Frame Size  Max Frame Size  Max Frame Time
------          -------         ------          --------------  --------------  --------------  --------------  --------------  --------------  --------------  --------------  --------------  --------------
1               0:00:00.000     0:02:02.872     28 527 kbps     43 239 kbps     00:00:09.884    40 669 kbps     00:00:05.922    32 979 kbps     00:00:05.588    148 677 bytes   367 152 bytes   00:02:01.871
2               0:02:02.872     0:03:26.956     25 780 kbps     44 343 kbps     00:03:15.945    40 591 kbps     00:05:08.016    39 300 kbps     00:05:06.472    134 404 bytes   623 625 bytes   00:02:36.072
3               0:05:29.829     0:15:34.391     26 030 kbps     46 691 kbps     00:18:26.939    40 432 kbps     00:18:24.394    37 572 kbps     00:09:23.813    135 707 bytes   458 667 bytes   00:06:02.320
4               0:21:04.221     0:07:20.022     26 608 kbps     42 203 kbps     00:24:49.863    37 534 kbps     00:28:10.605    36 899 kbps     00:21:48.432    138 724 bytes   486 849 bytes   00:21:54.062
5               0:28:24.244     0:14:03.801     23 890 kbps     42 398 kbps     00:32:54.263    40 591 kbps     00:32:54.263    39 651 kbps     00:32:51.302    124 549 bytes   465 933 bytes   00:42:28.045
6               0:42:28.045     0:15:21.629     24 536 kbps     44 510 kbps     00:51:12.611    41 370 kbps     00:51:11.943    39 814 kbps     00:51:08.690    127 922 bytes   437 332 bytes   00:42:44.061
7               0:57:49.674     0:14:21.193     26 480 kbps     47 110 kbps     00:58:58.785    40 988 kbps     01:01:50.289    39 819 kbps     01:08:52.920    138 054 bytes   452 203 bytes   00:58:07.025
8               1:12:10.868     0:12:28.956     26 169 kbps     46 874 kbps     01:21:03.149    40 107 kbps     01:12:27.718    37 576 kbps     01:18:41.883    136 434 bytes   418 739 bytes   01:24:05.623
9               1:24:39.824     0:04:37.068     33 846 kbps     44 442 kbps     01:24:39.824    41 437 kbps     01:24:39.824    39 515 kbps     01:24:39.824    176 458 bytes   317 358 bytes   01:28:26.843
10              1:29:16.893     0:02:52.672     25 137 kbps     44 634 kbps     01:29:21.689    41 695 kbps     01:29:17.435    36 125 kbps     01:29:48.508    131 086 bytes   687 810 bytes   01:29:22.190
STREAM DIAGNOSTICS:
File            PID             Type            Codec           Language                Seconds                 Bitrate                 Bytes           Packets
----            ---             ----            -----           --------                --------------          --------------          -------------   -----
00000.M2TS      4113 (0x1011)   0x1B            AVC                                     5529,482                26 000                  17 970 554 334  97 744 376
00000.M2TS      4352 (0x1100)   0x80            LPCM            eng (English)           5529,482                2 310                   1 596 926 820   8 847 240
00000.M2TS      4353 (0x1101)   0x86            DTS-HD MA       eng (English)           5529,482                4 208                   2 908 438 208   16 668 956
QUICK SUMMARY:
Disc Title: The_White_Stripes__Under_Great_White_Northern_LightsDisc Size: 23 878 480 537 bytesProtection: AACSBD-Java: NoPlaylist: 00000.MPLSSize: 23 701 604 352 bytesLength: 1:32:09.565Total Bitrate: 34,29 MbpsVideo: MPEG-4 AVC Video / 25999 kbps / 1080p / 23,976 fps / 16:9 / High Profile 4.1Audio: English / LPCM Audio / 2.0 / 48 kHz / 2304 kbps / 24-bitAudio: English / DTS-HD Master Audio / 5.1 / 48 kHz / 4208 kbps / 24-bit (DTS Core: 5.1 / 48 kHz / 1509 kbps / 24-bit)
********************PLAYLIST: 00001.MPLS********************
Код:
Total   Video
Title                                                           Codec   Length  Movie Size      Disc Size       Bitrate Bitrate Main Audio Track                          Secondary Audio Track
-----                                                           ------  ------- --------------  --------------  ------- ------- ------------------                        ---------------------
00001.MPLS                                                      MPEG-2  0:00:28 47 388 672      23 878 480 537  13,53   9,36    LPCM 2.0 1536Kbps (48kHz/16-bit)          LPCM 2.0 1536Kbps (48kHz/16-bit)
Код:
DISC INFO:
Disc Title:     The_White_Stripes__Under_Great_White_Northern_Lights
Disc Size:      23 878 480 537 bytes
Protection:     AACS
BD-Java:        No
BDInfo:         0.5.8
PLAYLIST REPORT:
Name:                   00001.MPLS
Length:                 0:00:28.027 (h:m:s.ms)
Size:                   47 388 672 bytes
Total Bitrate:          13,53 Mbps
VIDEO:
Codec                   Bitrate             Description
-----                   -------             -----------
MPEG-2 Video            9358 kbps           1080p / 23,976 fps / 16:9
AUDIO:
Codec                           Language        Bitrate         Description
-----                           --------        -------         -----------
LPCM Audio                      English         1536 kbps       2.0 / 48 kHz / 1536 kbps / 16-bit
LPCM Audio                      English         1536 kbps       2.0 / 48 kHz / 1536 kbps / 16-bit
FILES:
Name            Time In         Length          Size            Total Bitrate
----            -------         ------          ----            -------------
00002.M2TS      0:00:00.000     0:00:06.005     10 278 912      13 692
00004.M2TS      0:00:06.005     0:00:11.010     19 402 752      14 097
00003.M2TS      0:00:17.016     0:00:11.010     17 707 008      12 865
CHAPTERS:
Number          Time In         Length          Avg Video Rate  Max 1-Sec Rate  Max 1-Sec Time  Max 5-Sec Rate  Max 5-Sec Time  Max 10Sec Rate  Max 10Sec Time  Avg Frame Size  Max Frame Size  Max Frame Time
------          -------         ------          --------------  --------------  --------------  --------------  --------------  --------------  --------------  --------------  --------------  --------------
1               0:00:00.000     0:00:28.027     9 358 kbps      15 900 kbps     00:00:00.500    11 245 kbps     00:00:00.500    10 809 kbps     00:00:06.506    48 786 bytes    346 242 bytes   00:00:07.173
STREAM DIAGNOSTICS:
File            PID             Type            Codec           Language                Seconds                 Bitrate                 Bytes           Packets
----            ---             ----            -----           --------                --------------          --------------          -------------   -----
00002.M2TS      4113 (0x1011)   0x02            MPEG-2                                  5,881                   9 713                   7 140 070       38 904
00002.M2TS      4352 (0x1100)   0x80            LPCM            eng (English)           5,881                   1 575                   1 157 764       7 206
00002.M2TS      4353 (0x1101)   0x80            LPCM            eng (English)           5,881                   1 575                   1 157 764       7 206
00004.M2TS      4113 (0x1011)   0x02            MPEG-2                                  10,886                  10 017                  13 630 507      74 231
00004.M2TS      4352 (0x1100)   0x80            LPCM            eng (English)           10,886                  1 560                   2 122 728       13 212
00004.M2TS      4353 (0x1101)   0x80            LPCM            eng (English)           10,886                  1 560                   2 122 728       13 212
00003.M2TS      4113 (0x1011)   0x02            MPEG-2                                  10,886                  8 829                   12 013 926      65 428
00003.M2TS      4352 (0x1100)   0x80            LPCM            eng (English)           10,886                  1 560                   2 122 728       13 212
00003.M2TS      4353 (0x1101)   0x80            LPCM            eng (English)           10,886                  1 560                   2 122 728       13 212
QUICK SUMMARY:
Disc Title: The_White_Stripes__Under_Great_White_Northern_LightsDisc Size: 23 878 480 537 bytesProtection: AACSBD-Java: NoPlaylist: 00001.MPLSSize: 47 388 672 bytesLength: 0:00:28.027Total Bitrate: 13,53 MbpsVideo: MPEG-2 Video / 9358 kbps / 1080p / 23,976 fps / 16:9Audio: English / LPCM Audio / 2.0 / 48 kHz / 1536 kbps / 16-bitAudio: English / LPCM Audio / 2.0 / 48 kHz / 1536 kbps / 16-bit

Скриншоты

Other forum [Profile] [PM]
Display posts from previous:    
Reply to topic

The time now is: Today 04:28

All times are GMT + 3 Hours



You cannot post new topics in this forum
You cannot reply to topics in this forum
You cannot edit your posts in this forum
You cannot delete your posts in this forum
You cannot vote in polls in this forum
You cannot attach files in this forum
You cannot download files in this forum