Today is a free download without charge Download

Liquid Tension Experiment: Live in L.A. [2008, Progressive Rock, Progressive Metal, Blu-ray]

Reply to topic
 
Author
Message

Omen ®

Longevity: 6 years 10 months

Posts: 181090

Торрент-статистика

Post 03-Dec-2012 06:26

[Quote]

Liquid Tension Experiment: Live in L.A.
Жанр: Progressive Rock, Progressive Metal
Продолжительность: 02:17:46
Год выпуска: 2008
Описание: Блю Рэй, входящий в состав бокса LTE live 2008, отдельно не выходил
Треклист: 1. Acid Rain (9:25)
2. Kindred Spirits (8:00)
3. Biaxident (7:39)
4. Freedom of Speech (9:00)
5. Improv Jam #1 (8:10)
6. Another Dimension (10:51)
7. State of Grace (6:20)
8. Universal Mind (9:36)
--
9. When the Water Breaks (16:49)
10. Improv Jam #2 (11:31)
11. Rhapsody in Blue (13:49)
12. Osmosis (3:43)
13. Paradigm Shift (9:31)
+bonus:
Live in San Francisco 2008:
1. improv jam #1
2. improv jam #2
3. goodbye blue beard
Доп. информация: не обращайте внимание на таймкод на скринах — это таймкод не всего концерта, а одного из файлов на диске. За сканы огромое спасибо records6
Качество: Blu-ray
Контейнер: BDMV
Видео кодек: VC-1
Аудио кодеки: PCM, AC3
Видео: AVC, 1920x1080 (1080p), avg. 10,8 Mbit/sec, 23,976 f/sec (NTSC)
Аудио: PCM, 6912 kbit/sec, 48 kHz, 24 bit, 5.1 ch
Аудио 2: AC-3, 192 kbit/sec, 48kHz, 16 bit, 2.0 ch

Отчёт BDinfo

Disc Title: LTE_LADisc Size: 23 165 009 270 bytesProtection: AACSBD-Java: NoBDInfo: 0.5.8
Notes:
BDINFO HOME: Cinema Squid http://www.cinemasquid.com/blu-ray/tools/bdinfo
INCLUDES FORUMS REPORT FOR: AVS Forum Blu-ray Audio and Video Specifications Thread http://www.avsforum.com/avs-vb/showthread.php?t=1155731
********************PLAYLIST: 00006.MPLS********************
Код:
Total   Video
Title                                                           Codec   Length  Movie Size      Disc Size       Bitrate Bitrate Main Audio Track                          Secondary Audio Track
-----                                                           ------  ------- --------------  --------------  ------- ------- ------------------                        ---------------------
00006.MPLS                                                      AVC     2:17:46 19 154 190 336  23 165 009 270  18,54   10,39   LPCM 5.1 6912Kbps (48kHz/24-bit)
Код:
DISC INFO:
Disc Title:     LTE_LA
Disc Size:      23 165 009 270 bytes
Protection:     AACS
BD-Java:        No
BDInfo:         0.5.8
PLAYLIST REPORT:
Name:                   00006.MPLS
Length:                 2:17:46.383 (h:m:s.ms)
Size:                   19 154 190 336 bytes
Total Bitrate:          18,54 Mbps
VIDEO:
Codec                   Bitrate             Description
-----                   -------             -----------
MPEG-4 AVC Video        10388 kbps          1080p / 23,976 fps / 16:9 / High Profile 4.1
AUDIO:
Codec                           Language        Bitrate         Description
-----                           --------        -------         -----------
LPCM Audio                      English         6912 kbps       5.1 / 48 kHz / 6912 kbps / 24-bit
Dolby Digital Audio             English         192 kbps        2.0 / 48 kHz / 192 kbps
FILES:
Name            Time In         Length          Size            Total Bitrate
----            -------         ------          ----            -------------
00010.M2TS      0:00:00.000     0:54:50.870     7 668 486 144   18 642
00000.M2TS      0:54:50.870     1:21:15.370     11 350 437 888  18 625
00003.M2TS      2:16:06.241     0:01:40.141     135 266 304     10 806
CHAPTERS:
Number          Time In         Length          Avg Video Rate  Max 1-Sec Rate  Max 1-Sec Time  Max 5-Sec Rate  Max 5-Sec Time  Max 10Sec Rate  Max 10Sec Time  Avg Frame Size  Max Frame Size  Max Frame Time
------          -------         ------          --------------  --------------  --------------  --------------  --------------  --------------  --------------  --------------  --------------  --------------
1               0:00:00.000     0:00:59.976     8 692 kbps      15 395 kbps     00:00:42.584    11 874 kbps     00:00:08.591    11 197 kbps     00:00:08.591    45 282 bytes    183 124 bytes   00:00:58.141
2               0:00:59.976     0:10:11.360     10 091 kbps     17 160 kbps     00:07:10.054    16 075 kbps     00:07:06.426    13 935 kbps     00:07:28.573    52 612 bytes    245 689 bytes   00:07:10.263
3               0:11:11.337     0:08:14.827     10 277 kbps     22 761 kbps     00:11:33.150    20 417 kbps     00:11:29.855    20 161 kbps     00:11:21.847    53 579 bytes    280 487 bytes   00:11:25.684
4               0:19:26.165     0:07:34.912     10 366 kbps     21 756 kbps     00:25:16.515    19 016 kbps     00:25:12.511    15 904 kbps     00:25:11.384    54 046 bytes    314 595 bytes   00:25:15.138
5               0:27:01.077     0:08:54.033     12 646 kbps     21 170 kbps     00:32:03.921    19 072 kbps     00:32:13.765    17 584 kbps     00:33:06.067    65 933 bytes    311 837 bytes   00:33:12.615
6               0:35:55.111     0:08:27.006     9 781 kbps      21 419 kbps     00:42:06.190    19 514 kbps     00:42:02.186    18 348 kbps     00:41:57.181    50 992 bytes    328 222 bytes   00:43:21.181
7               0:44:22.117     0:10:23.622     10 091 kbps     19 554 kbps     00:54:34.437    17 732 kbps     00:45:14.503    16 950 kbps     00:54:33.687    52 612 bytes    319 568 bytes   00:50:58.930
8               0:54:45.740     0:06:00.985     8 716 kbps      15 800 kbps     00:55:52.182    15 141 kbps     00:55:50.430    14 064 kbps     00:55:49.179    45 439 bytes    161 042 bytes   00:55:54.684
9               1:00:46.726     0:13:00.780     9 210 kbps      18 235 kbps     01:11:43.424    15 914 kbps     01:10:59.505    14 454 kbps     01:11:50.180    48 019 bytes    236 455 bytes   01:00:51.981
10              1:13:47.506     0:17:52.071     11 578 kbps     25 543 kbps     01:16:35.799    22 788 kbps     01:16:32.796    19 221 kbps     01:16:28.083    60 360 bytes    327 639 bytes   01:20:05.717
11              1:31:39.577     0:13:17.171     11 541 kbps     23 843 kbps     01:40:08.252    20 879 kbps     01:40:05.999    20 098 kbps     01:40:02.246    60 170 bytes    326 727 bytes   01:40:03.038
12              1:44:56.748     0:15:19.418     10 923 kbps     24 441 kbps     01:58:01.407    21 579 kbps     01:57:59.906    19 910 kbps     01:45:17.936    56 949 bytes    328 147 bytes   01:45:18.186
13              2:00:16.167     0:05:51.768     9 873 kbps      22 054 kbps     02:05:58.467    19 682 kbps     02:05:55.589    16 388 kbps     02:00:34.060    51 472 bytes    326 069 bytes   02:05:59.385
14              2:06:07.935     0:09:58.306     9 525 kbps      25 233 kbps     02:14:56.713    21 566 kbps     02:14:53.960    18 384 kbps     02:14:48.580    49 656 bytes    327 048 bytes   02:14:57.589
15              2:16:06.241     0:01:40.141     2 109 kbps      7 270 kbps      02:17:26.321    6 439 kbps      02:17:25.362    6 087 kbps      02:17:22.025    11 002 bytes    68 671 bytes    02:17:26.571
STREAM DIAGNOSTICS:
File            PID             Type            Codec           Language                Seconds                 Bitrate                 Bytes           Packets
----            ---             ----            -----           --------                --------------          --------------          -------------   -----
00010.M2TS      4113 (0x1011)   0x1B            AVC                                     3290,746                10 500                  4 319 065 529   23 519 354
00010.M2TS      4352 (0x1100)   0x80            LPCM            eng (English)           3290,746                6 919                   2 845 948 700   15 796 200
00010.M2TS      4353 (0x1101)   0x81            AC3             eng (English)           3290,746                192                     78 981 120      514 200
00000.M2TS      4113 (0x1011)   0x1B            AVC                                     4875,245                10 483                  6 388 673 809   34 789 546
00000.M2TS      4352 (0x1100)   0x80            LPCM            eng (English)           4875,245                6 919                   4 216 293 484   23 402 184
00000.M2TS      4353 (0x1101)   0x81            AC3             eng (English)           4875,245                192                     117 009 408     761 780
00003.M2TS      4113 (0x1011)   0x1B            AVC                                     99,975                  2 113                   26 407 032      144 873
00003.M2TS      4352 (0x1100)   0x80            LPCM            eng (English)           99,975                  7 761                   96 991 644      538 344
00003.M2TS      4353 (0x1101)   0x81            AC3             eng (English)           99,975                  215                     2 691 840       17 525
QUICK SUMMARY:
Disc Title: LTE_LADisc Size: 23 165 009 270 bytesProtection: AACSBD-Java: NoPlaylist: 00006.MPLSSize: 19 154 190 336 bytesLength: 2:17:46.383Total Bitrate: 18,54 MbpsVideo: MPEG-4 AVC Video / 10388 kbps / 1080p / 23,976 fps / 16:9 / High Profile 4.1Audio: English / LPCM Audio / 5.1 / 48 kHz / 6912 kbps / 24-bitAudio: English / Dolby Digital Audio / 2.0 / 48 kHz / 192 kbps

Отчёт MediaInfo

[pre]Общее
Идентификатор : 0 (0x0)
Полное имя : G:\BDMV\STREAM\00000.m2ts
Формат : BDAV
Формат/Информация : Blu-ray Video
Размер файла : 10,6 Гбайт
Продолжительность : 1 ч. 21 м.
Режим общего битрейта : Переменный
Общий поток : 18,6 Мбит/сек
Максимальный общий битрейт : 48,0 Мбит/сек
Видео
Идентификатор : 4113 (0x1011)
Идентификатор меню : 1 (0x1)
Формат : AVC
Формат/Информация : Advanced Video Codec
Профиль формата : [email protected]
Параметр CABAC формата : Да
Параметр ReFrames формата : 4 кадра
Параметр GOP формата : M=3, N=18
Идентификатор кодека : 27
Продолжительность : 1 ч. 21 м.
Вид битрейта : Переменный
Битрейт : 10,8 Мбит/сек
Максимальный битрейт : 18,0 Мбит/сек
Ширина : 1920 пикселей
Высота : 1080 пикселей
Соотношение сторон : 16:9
Частота кадров : 23,976 кадра/сек
Стандарт вещания : NTSC
Цветовое пространство : YUV
Субдискретизация насыщенности : 4:2:0
Битовая глубина : 8 бит
Тип развёртки : Прогрессивная
Бит/(Пиксели*Кадры) : 0.217
Размер потока : 6,11 Гбайт (58%)
Основные цвета : BT.709-5, BT.1361, IEC 61966-2-4, SMPTE RP177
Характеристики трансфера : BT.709-5, BT.1361
Коэффициенты матрицы : BT.709-5, BT.1361, IEC 61966-2-4 709, SMPTE RP177
Аудио #1
Идентификатор : 4352 (0x1100)
Идентификатор меню : 1 (0x1)
Формат : PCM
Параметр Endianness формата : Big
Параметр Sign формата : Signed
Режим смешивания : Blu-ray
Идентификатор кодека : 128
Продолжительность : 1 ч. 21 м.
Вид битрейта : Постоянный
Битрейт : 6912 Кбит/сек
Каналы : 6 каналов
Расположение каналов : Front: L C R, Side: L R, LFE
Частота : 48,0 КГц
Битовая глубина : 24 бит
Размер потока : 3,92 Гбайт (37%)
Аудио #2
Идентификатор : 4353 (0x1101)
Идентификатор меню : 1 (0x1)
Формат : AC-3
Формат/Информация : Audio Coding 3
Расширение режима : CM (complete main)
Параметр Endianness формата : Big
Идентификатор кодека : 129
Продолжительность : 1 ч. 21 м.
Вид битрейта : Постоянный
Битрейт : 192 Кбит/сек
Каналы : 2 канала
Расположение каналов : Front: L R
Частота : 48,0 КГц
Битовая глубина : 16 бит
Метод сжатия : С потерями
Размер потока : 112 Мбайт (1%)

Скриншоты






ковры (увеличение по клику)


ТОРРЕНТ ПЕРЕЗАЛИТ - ПОЖАЛУЙСТА, СКАЧАЙТЕ СНОВА. Теперь папка имеет название
как вариант — назовите папку LTE_LA и поставьте закачку туда. Если вы уже скачали, после проверки останется только раздача
Other forum [Profile] [PM]
Display posts from previous:    
Reply to topic

The time now is: Today 13:03

All times are GMT + 3 Hours



You cannot post new topics in this forum
You cannot reply to topics in this forum
You cannot edit your posts in this forum
You cannot delete your posts in this forum
You cannot vote in polls in this forum
You cannot attach files in this forum
You cannot download files in this forum