Today is a free download without charge Download

Green Day - Live at iHeartRadio Music Festival 2012 [2012 г., Alternative Rock, Punk, HDTV (Feed)]

Reply to topic
 
Author
Message

Omen ®

Longevity: 6 years 10 months

Posts: 181090

Торрент-статистика

Post 03-Dec-2012 06:26

[Quote]

Green Day - Live at iHeartRadio Music Festival 2012- Год выпуска: 2012
Жанр: Alternative Rock, Punk
Продолжительность: 00:34:08-Описание: Выступление Green Day на фестивале iHeartRadio Music Festival 2012.-Треклист:
01. American Idiot
02. Holiday
03. Fuck Time
04. Longview
05. Oh Love
06. St. Jimmy
07. Basket Case-Качество: HDTV (Feed)
Формат: TS
Видео кодек: H.264
Аудио кодек: MP2
Видео: 1920x1080 (16:9) at 29.970 fps, ~34.76 Mbps avg
Аудио: MPEG Audio 2.0 (48 kHz / 384 kbps)-

MediaInfo

GeneralID : 1 (0x1)Complete name : Green Day - iHeartRadio Music Festival 2012 1080i HDTV 35 Mbps MPA2.0 H.264-TrollHD.tsFormat : MPEG-TSFile size : 8.69 GiBDuration : 34mn 8sOverall bit rate : 36.4 Mbps
VideoID : 308 (0x134)Menu ID : 1 (0x1)Format : AVCFormat/Info : Advanced Video CodecFormat profile : [email protected] settings, CABAC : YesFormat settings, ReFrames : 4 framesCodec ID : 27Duration : 34mn 8sBit rate : 33.9 MbpsWidth : 1 920 pixelsHeight : 1 080 pixelsDisplay aspect ratio : 16:9Frame rate : 29.970 fpsColor space : YUVChroma subsampling : 4:2:0Bit depth : 8 bitsScan type : InterlacedScan order : Top Field FirstBits/(Pixel*Frame) : 0.545Stream size : 8.07 GiB (93%)Color primaries : BT.709-5, BT.1361, IEC 61966-2-4, SMPTE RP177Transfer characteristics : BT.709-5, BT.1361Matrix coefficients : BT.709-5, BT.1361, IEC 61966-2-4 709, SMPTE RP177
Audio #1ID : 256 (0x100)Menu ID : 1 (0x1)Format : MPEG AudioFormat version : Version 1Format profile : Layer 2Codec ID : 3Duration : 34mn 8sBit rate mode : ConstantBit rate : 384 KbpsChannel(s) : 2 channelsSampling rate : 48.0 KHzCompression mode : LossyDelay relative to video : -33msStream size : 93.8 MiB (1%)Language : English
Audio #2ID : 257 (0x101)Menu ID : 1 (0x1)Format : MPEG AudioFormat version : Version 1Format profile : Layer 2Codec ID : 3Duration : 34mn 8sBit rate mode : ConstantBit rate : 384 KbpsChannel(s) : 2 channelsSampling rate : 48.0 KHzCompression mode : LossyDelay relative to video : -33msStream size : 93.8 MiB (1%)Language : English

MPEG2Repair

Sequence Frame 61401(0-X) / Time 0:34:07 :Info: End of H.264 sequence
Sequence Summary:
File Size Processed: 8.69 GB, Play Time: 00h:34m:07s29.99 FPS (Average), 34.76 Mbps (Average).MPEG Audio.0 of 0 audio frames found with errors.0.000000 seconds of audio timestamp gaps.
End of Log

Скриншоты


Other forum [Profile] [PM]
Display posts from previous:    
Reply to topic

The time now is: Today 13:11

All times are GMT + 3 Hours



You cannot post new topics in this forum
You cannot reply to topics in this forum
You cannot edit your posts in this forum
You cannot delete your posts in this forum
You cannot vote in polls in this forum
You cannot attach files in this forum
You cannot download files in this forum