Today is a free download without charge Download

Trivium - In Waves (Directed & edited by Ramon Boutviseth) [2011, Groove Metal, HDTVRip]

Reply to topic
 
Author
Message

Omen ®

Longevity: 6 years 10 months

Posts: 181090

Торрент-статистика

Post 03-Dec-2012 06:25

[Quote]

Trivium - In Waves (Directed & edited by Ramon Boutviseth)

Описание: Slow MVID. А ля: Underoath - In Division
Жанр: Groov Metal
Продолжительность: 6mn 59s 561ms
Год выпуска: 2011
Качество: HDTVRip
Контейнер: MKV
Видео кодек: H.264
Аудио кодек: AAC
Видео: AVC at 4 054 Kbps 1280 x 720 (1.778) at 23.976 fps
Аудио: AAC at 256 Kbps 2 channels, 44.1 KHz

Mediainfo

Format : MPEG-4
Format profile : Base Media / Version 2
Codec ID : mp42
File size : 216 MiB
Duration : 6mn 59s
Overall bit rate : 4 313 Kbps
Encoded date : UTC 2011-06-15 14:10:28
Tagged date : UTC 2011-06-15 14:10:28
Video
ID : 2
Format : AVC
Format/Info : Advanced Video Codec
Format profile : [email protected]
Format settings, CABAC : No
Format settings, ReFrames : 5 frames
Codec ID : avc1
Codec ID/Info : Advanced Video Coding
Duration : 6mn 59s
Bit rate mode : Variable
Bit rate : 4 054 Kbps
Width : 1 280 pixels
Height : 720 pixels
Display aspect ratio : 16:9
Frame rate mode : Constant
Frame rate : 23.976 fps
Standard : NTSC
Color space : YUV
Chroma subsampling : 4:2:0
Bit depth : 8 bits
Scan type : Progressive
Bits/(Pixel*Frame) : 0.183
Stream size : 203 MiB (94%)
Language : English
Encoded date : UTC 2011-06-15 14:10:28
Tagged date : UTC 2011-06-15 14:10:28
Audio
ID : 1
Format : AAC
Format/Info : Advanced Audio Codec
Format profile : LC
Codec ID : 40
Duration : 6mn 59s
Bit rate mode : Constant
Bit rate : 256 Kbps
Channel(s) : 2 channels
Channel positions : Front: L R
Sampling rate : 44.1 KHz
Compression mode : Lossy
Stream size : 12.8 MiB (6%)
Language : English
Encoded date : UTC 2011-06-15 14:10:28
Tagged date : UTC 2011-06-15 14:10:28

Скриншоты

Other forum [Profile] [PM]
Display posts from previous:    
Reply to topic

The time now is: Today 04:33

All times are GMT + 3 Hours



You cannot post new topics in this forum
You cannot reply to topics in this forum
You cannot edit your posts in this forum
You cannot delete your posts in this forum
You cannot vote in polls in this forum
You cannot attach files in this forum
You cannot download files in this forum