Today is a free download without charge Download

Лофт / Loft (Эрик Ван Лоой) [2008 г., триллер, драма, мелодрама, криминал, детектив, BDRip720р]

Reply to topic
 
Author
Message

Delia ®

Gender:

Longevity: 10 years

Posts: 1821

Торрент-статистика

Post 03-Apr-2011 08:59

[Quote]

ЛофтLoftПять друзей. Один чердак. Одно тело Год выпуска: 2008
Страна: Бельгия
Продолжительность: 01:57:38
Жанр: триллер, драма, мелодрама, криминал, детектив
Перевод: Авторский одноголосый (Вадим Белов)
Режиссер: Эрик Ван Лоой
Сценарий: Барт Де Пау
Бюджет: €3 200 000
Премьера в мире: 22 октября 2008
В ролях: Коэн Де Боу, Филип Питерс, Матиас Скунартс, Бруно Ванден Броуцке, Коен Де Граеве, Веерле Баетенс, Чарлотте Вандермеерсч, Щине Диерицкх
Описание: Один из пяти друзей дарит остальным ключи от квартиры на последнем этаже в доме, который он проектировал, как архитектор. Все пятеро женаты, но теперь они могут использовать квартирку для развлечений "на стороне". Только какую цену им придется за это заплатить? И насколько верна их дружба?..
Качество: BDRip720р
Формат: MKV
Видео кодек: H.264
Аудио кодек: AC3
Видео: English, 4680 Кбит/сек, 1280*544 (2,35:1), в 24,000 кадр/сек, AVC
Аудио: Russian, 640 Кбит/сек, 48,0 КГц, 16 бит, 6 канала(ов), AC-3
Cубтитры:Russian, English - str

Media Info:

Общее
Уникальный идентификатор : 191265781850949468223907476651421563678 (0x8FE4731CF09E24FFA83D0A7E0B8D7B1E)
Полное имя : E:\торрент\Loft(2008) ВDRip 720p.mkv
Формат : Matroska
Размер файла : 4,37 Гбайт
Продолжительность : 1 ч. 57 м.
Общий поток : 5323 Кбит/сек
Дата кодирования : UTC 2011-04-03 05:09:37
Программа кодирования : mkvmerge v4.6.0 ('Still Crazy After All These Years') built on Mar 10 2011 02:50:32
Библиотека кодирования : libebml v1.2.0 + libmatroska v1.1.0
Видео
Идентификатор : 1
Формат : AVC
Формат/Информация : Advanced Video Codec
Профиль формата : [email protected]
Параметр CABAC формата : Да
Параметр ReFrames формата : 10 кадры
Идентификатор кодека : V_MPEG4/ISO/AVC
Продолжительность : 1 ч. 57 м.
Битрейт : 4680 Кбит/сек
Ширина : 1280 пикс.
Высота : 544 пикс.
Соотношение сторон : 2,35:1
Частота кадров : 24,000 кадр/сек
Цветовое пространство : YUV
Подвыборка цветности : 4:2:0
Битовая глубина : 8 бит
Тип развёртки : Прогрессивная
Бит/(Пиксели*Кадры) : 0.280
Размер потока : 3,76 Гбайт (86%)
Библиотека кодирования : x264 core 114 r1924 08d04a4
Настройки программы : cabac=1 / ref=10 / deblock=1:-3:-2 / analyse=0x3:0x133 / me=umh / subme=7 / psy=1 / psy_rd=1.00:0.15 / mixed_ref=1 / me_range=32 / chroma_me=1 / trellis=2 / 8x8dct=1 / cqm=0 / deadzone=21,11 / fast_pskip=0 / chroma_qp_offset=-3 / threads=6 / sliced_threads=0 / nr=0 / decimate=1 / interlaced=0 / constrained_intra=0 / bframes=5 / b_pyramid=2 / b_adapt=1 / b_bias=0 / direct=1 / weightb=0 / open_gop=0 / weightp=2 / keyint=250 / keyint_min=24 / scenecut=40 / intra_refresh=0 / rc_lookahead=40 / rc=2pass / mbtree=1 / bitrate=4680 / ratetol=1.0 / qcomp=0.80 / qpmin=5 / qpmax=51 / qpstep=4 / cplxblur=20.0 / qblur=0.5 / ip_ratio=1.40 / aq=1:1.00
Язык : English
Аудио
Идентификатор : 2
Формат : AC-3
Формат/Информация : Audio Coding 3
Расширение режима : CM (complete main)
Идентификатор кодека : A_AC3
Продолжительность : 1 ч. 57 м.
Вид битрейта : Постоянный
Битрейт : 640 Кбит/сек
Канал(ы) : 6 канала(ов)
Расположение каналов : Front: L C R, Side: L R, LFE
Частота : 48,0 КГц
Битовая глубина : 16 бит
Метод сжатия : С потерями
Размер потока : 538 Мбайт (12%)
Язык : Russian
Текст #1
Идентификатор : 3
Формат : UTF-8
Идентификатор кодека : S_TEXT/UTF8
Идентификатор кодека/Информация : UTF-8 Plain Text
Язык : Russian
Текст #2
Идентификатор : 4
Формат : UTF-8
Идентификатор кодека : S_TEXT/UTF8
Идентификатор кодека/Информация : UTF-8 Plain Text
Язык : English

Скриншоты

        

_________________
Человек – это канат, натянутый между животным и сверхчеловеком, – канат над пропастью.
В человеке ценно то, что он мост, а не цель. Фридрих Ницше


Last edited by Delia on 2011-08-14 17:44; edited 1 time in total
Other forum [Profile] [PM]
Display posts from previous:    
Reply to topic

The time now is: Today 05:15

All times are GMT + 3 Hours



You cannot post new topics in this forum
You cannot reply to topics in this forum
You cannot edit your posts in this forum
You cannot delete your posts in this forum
You cannot vote in polls in this forum
You cannot attach files in this forum
You cannot download files in this forum