Today is a free download without charge Download

Петля времени / Looper (Райан Джонсон) [2012.., США, Фантастика, боевик, триллер, DVD9]

Reply to topic
 
Author
Message

Meshanik ®

Gender:

Longevity: 8 years 10 months

Posts: 3866

Location: Los Angeles

Торрент-статистика

Post 02-Dec-2012 22:28

[Quote]

Петля времени / Looper
«В плену будущего. В плену прошлого»
- Русское название: Петля времени
Оригинальное название: Looper
Год выпуска: 2012
Производство: США, Китай / DMG Entertainment, Endgame Entertainment
Жанр: Фантастика, боевик, триллер
Перевод: Дублированный [лицензия]
Субтитры: Отсутствуют
Дата мировой премьеры: 6 сентября 2012
Дата российской премьеры: 27 сентября 2012, «Top Film Distribution»
Дата выхода DVD релиза: 29 ноября 2012, «Новый Диск», «New Dream media»
Режиссер: Райан Джонсон
Актеры: Джозеф Гордон-Левитт, Брюс Уиллис, Эмили Блант, Джефф Дэниелс, Ной Сеган, Пирс Гэнон, Пол Дано, Пайпер Перабо, Квинг Ксу, Трейси Томс
Описание фильма:
В недалеком будущем, где стали возможны путешествия во времени, некая корпорация убирает нежелательных людей, отправляя их в прошлое в пластиковых пакетах. Задача принимающей стороны — убить жертву, стерев тем самым несчастного из истории. Все идет гладко до тех пор, пока главный герой не распаковывает очередной пакет, обнаруживая в нем… самого себя из будущего.

Рейтинг R17 - Детям до 17 лет обязательно присутствие родителей
Продолжительность: 01:53:46
Качество видео: DVD9
Видеокодек: MPEG-2
Битрейт видео: ~5894 kbps
Размер кадра: [email protected] (PAL 16:9)
Аудио: AC3 5.1, 448 kbps, 48.0 KHz [Русский]

Дополнительные материалы:

Отсутствуют

DVDinfo:

Title: Looper.(2012).DVD9
Size: 5.33 Gb ( 5 587 032 KBytes ) - DVD-9
Enabled regions: 1, 2, 3, 4, 5, 6, 7, 8
VTS_01 :
Play Length: 01:53:46
Video: PAL 16:9 (720x576) VBR, Auto Pan&Scan
Audio:
Russian (Dolby AC3, 6 ch)
VTS_02 :
Play Length: 00:00:08
Video: PAL 4:3 (720x576) VBR
VTS_03 :
Play Length: 00:00:21
Video: PAL 16:9 (720x576) VBR, Auto Pan&Scan
Audio:
English (Dolby AC3, 2 ch)
VTS_04 :
Play Length: 00:00:30
Video: PAL 16:9 (720x576) VBR, Auto Pan&Scan
Audio:
English (Dolby AC3, 2 ch)
VTS_05 :
Play Length: 00:00:10
Video: PAL 16:9 (720x576) VBR, Auto Pan&Scan
Audio:
English (Dolby AC3, 2 ch)

MediaInfo:

Полное имя : D:\Looper.(2012).DVD9\VIDEO_TS\VTS_01_2.VOB
Формат : MPEG-PS
Размер файла : 1024 Мбайт
Продолжительность : 22 м.
Режим общего битрейта : Переменный
Общий поток : 6471 Кбит/сек
Видео
Идентификатор : 224 (0xE0)
Формат : MPEG Video
Версия формата : Version 2
Профиль формата : [email protected]
Параметр BVOP формата : Да
Параметр матрицы формата : Выборочная
Параметр GOP формата : M=3, N=15
Продолжительность : 22 м.
Вид битрейта : Переменный
Битрейт : 5894 Кбит/сек
Максимальный битрейт : 8000 Кбит/сек
Ширина : 720 пикселей
Высота : 576 пикселей
Соотношение сторон : 16:9
Частота кадров : 25,000 кадров/сек
Стандарт вещания : PAL
Цветовое пространство : YUV
Субдискретизация насыщенности : 4:2:0
Битовая глубина : 8 бит
Тип развёртки : Чересстрочная
Порядок развёртки : Верхнее поле первое
Метод сжатия : С потерями
Бит/(Пиксели*Кадры) : 0.569
Размер потока : 932 Мбайт (91%)
Аудио
Идентификатор : 189 (0xBD)-128 (0x80)
Формат : AC-3
Формат/Информация : Audio Coding 3
Расширение режима : CM (complete main)
Параметр Endianness формата : Big
Режим смешивания : DVD-Video
Продолжительность : 22 м.
Вид битрейта : Постоянный
Битрейт : 448 Кбит/сек
Каналы : 6 каналов
Расположение каналов : Front: L C R, Side: L R, LFE
Частота : 48,0 КГц
Битовая глубина : 16 бит
Метод сжатия : С потерями
Задержка видео : -800 мс.
Размер потока : 70,9 Мбайт (7%)
Меню

Скриншоты меню:

   
Скриншоты:
       
       
Other forum [Profile] [PM]

Dracula

Longevity: 7 years 5 months

Posts: 11218

Торрент-статистика

Post 02-Dec-2012 23:44 (after 1 hour 16 minutes)

Топик был перенесен из форума Фильмы 2012 (новинки) в форум Новинки (DVD, HD Video)


kogesan
 
Display posts from previous:    
Reply to topic

The time now is: Today 23:48

All times are GMT + 3 Hours



You cannot post new topics in this forum
You cannot reply to topics in this forum
You cannot edit your posts in this forum
You cannot delete your posts in this forum
You cannot vote in polls in this forum
You cannot attach files in this forum
You cannot download files in this forum