Today is a free download without charge Download

Сборник: всё про попугая Кешу (1984-2006гг.) DVDRip [Возвращение блудного попугая, Кеша - рыболов, Мужество попугая Кеши, Похищение Кеши, Кеша и чудовище]

Reply to topic
 
Author
Message

Koralina ®

Longevity: 9 years 1 month

Posts: 994

Location: Lithuania

Торрент-статистика

Post 01-Dec-2012 11:43

[Quote]

Сборник: всё про попугая Кешу (1984-2006гг.) DVDRip
Автор рипа: CrimeanFox
Русское название: Сборник: всё про попугая Кешу
Год выпуска: 1984-2006 гг.
Жанр: Комедия, Рисованная анимация, Семейный
Страна: СССР, Россия , Союзмультфильм
Режиссер: Валентин Караваев, Александр Давыдов
Персонажи: Геннадий Хазанов, Маргарита Корабельникова, Зинаида Нарышкина, Игорь Христенко, Дмитрий Филимонов, Дмитрий Курта
Описание:
1. Возвращение блудного попугая (Выпуск 1)
2. Возвращение блудного попугая (Выпуск 2)
3. Возвращение блудного попугая (Выпуск 3)
4. Возвращение блудного попугая (Утро попугая Кеши)
5. Кеша - рыболов
6. Мужество попугая Кеши
7. Похищение Кеши
8. Кеша и чудовище
Продолжительность: 01:29:24
Сэмпл: Ссылка
Исходник DVD5, PAL 4:3 (720x576) VBR
Видеокодек: Xvid
Битрейт видео: ~1 900 Kbps
Размер кадра: 688х512
Качество видео: DVDRip
Аудиокодек: AC3 2 ch / 6 ch
Битрейт аудио: 192 Kbps / 448 Kbps Oписание: Кеша смотрит криминальную хронику по телевизору, мешая Вовке делать уроки. Он игнорирует просьбы мальчика убавить звук. Тогда Вовка просто отключает телевизор. Обиженный попугай пытается привлечь к себе внимание, но хозяин непреклонен.
Прoдолжительность: 00:09:42

Видеокодек: Xvid
Битрейт видео: ~1 916 Kbps
Размер кадра: 688х512
Качество видео: DVDRip
Аудиокодек: AC3 6 ch
Битрейт аудио: 448 Kbps

Медиаинфо

Format : AVI
Format/Info : Audio Video Interleave
File size : 165 MiB
Duration : 9mn 42s
Overall bit rate : 2 373 Kbps
Director : CrimeanFox
Writing application : VirtualDubMod 1.5.10.3 | www.virtualdub-fr.org || (build 2550/release)
Writing library : VirtualDub build 32706/release
Video
ID : 0
Format : MPEG-4 Visual
Format profile : Advanced [email protected]
Format settings, BVOP : 2
Format settings, QPel : No
Format settings, GMC : No warppoints
Format settings, Matrix : Default (MPEG)
Codec ID : XVID
Codec ID/Hint : XviD
Duration : 9mn 42s
Bit rate : 1 916 Kbps
Width : 688 pixels
Height : 512 pixels
Display aspect ratio : 4:3
Frame rate : 25.000 fps
Color space : YUV
Chroma subsampling : 4:2:0
Bit depth : 8 bits
Scan type : Progressive
Compression mode : Lossy
Bits/(Pixel*Frame) : 0.218
Stream size : 133 MiB (81%)
Writing library : XviD 65
Audio
ID : 1
Format : AC-3
Format/Info : Audio Coding 3
Mode extension : CM (complete main)
Format settings, Endianness : Big
Codec ID : 2000
Duration : 9mn 42s
Bit rate mode : Constant
Bit rate : 448 Kbps
Channel(s) : 6 channels
Channel positions : Front: L C R, Side: L R, LFE
Sampling rate : 48.0 KHz
Bit depth : 16 bits
Compression mode : Lossy
Stream size : 31.1 MiB (19%)
Alignment : Aligned on interleaves
Interleave, duration : 40 ms (1.00 video frame)
Interleave, preload duration : 512 ms
Скриншоты:
       
       
Oписание: Воскресным утром Кеша выгуливает щенка. Вдруг он видит старых друзей — воробьёв и ворону. Привязав собачку к мусорному баку, он пытается привлечь к себе внимание, развлекая собравшихся.
Но появление толстого рыжего кота в новых фирменных джинсах оказывает больший фурор, чем его выступление
Прoдолжительность: 00:09:46

Видеокодек: Xvid
Битрейт видео: ~ 1 922 Kbps
Размер кадра: 688х512
Качество видео: DVDRip
Аудиокодек: AC3 6 ch
Битрейт аудио: 448 Kbps

Медиаинфо

Format : AVI
Format/Info : Audio Video Interleave
File size : 166 MiB
Duration : 9mn 46s
Overall bit rate : 2 380 Kbps
Director : CrimeanFox
Writing application : VirtualDubMod 1.5.10.3 | www.virtualdub-fr.org || (build 2550/release)
Writing library : VirtualDub build 32706/release
Video
ID : 0
Format : MPEG-4 Visual
Format profile : Advanced [email protected]
Format settings, BVOP : 2
Format settings, QPel : No
Format settings, GMC : No warppoints
Format settings, Matrix : Default (MPEG)
Codec ID : XVID
Codec ID/Hint : XviD
Duration : 9mn 46s
Bit rate : 1 922 Kbps
Width : 688 pixels
Height : 512 pixels
Display aspect ratio : 4:3
Frame rate : 25.000 fps
Color space : YUV
Chroma subsampling : 4:2:0
Bit depth : 8 bits
Scan type : Progressive
Compression mode : Lossy
Bits/(Pixel*Frame) : 0.218
Stream size : 134 MiB (81%)
Writing library : XviD 65
Audio
ID : 1
Format : AC-3
Format/Info : Audio Coding 3
Mode extension : CM (complete main)
Format settings, Endianness : Big
Codec ID : 2000
Duration : 9mn 46s
Bit rate mode : Constant
Bit rate : 448 Kbps
Channel(s) : 6 channels
Channel positions : Front: L C R, Side: L R, LFE
Sampling rate : 48.0 KHz
Bit depth : 16 bits
Compression mode : Lossy
Stream size : 31.3 MiB (19%)
Alignment : Aligned on interleaves
Interleave, duration : 40 ms (1.00 video frame)
Interleave, preload duration : 512 ms
Скриншоты:
       
       
Oписание: Толстый рыжий кот уезжает на большом грузовике с хозяевами на дачу.
Кеша сетует, что, в отличие от других, он вынужден находиться в городе (Вовка заболел). Не желая ждать выздоровления хозяина, попугай отправляется на отдых самостоятельно.
Прoдолжительность: 00:09:33

Видеокодек: Xvid
Битрейт видео: ~ 1 920 Kbps
Размер кадра: 688х512
Качество видео: DVDRip
Аудиокодек: AC3 6 ch
Битрейт аудио: 448 Kbps

Медиаинфо

Format : AVI
Format/Info : Audio Video Interleave
File size : 163 MiB
Duration : 9mn 33s
Overall bit rate : 2 378 Kbps
Director : CrimeanFox
Writing application : VirtualDubMod 1.5.10.3 | www.virtualdub-fr.org || (build 2550/release)
Writing library : VirtualDub build 32706/release
Video
ID : 0
Format : MPEG-4 Visual
Format profile : Advanced [email protected]
Format settings, BVOP : 2
Format settings, QPel : No
Format settings, GMC : No warppoints
Format settings, Matrix : Default (MPEG)
Codec ID : XVID
Codec ID/Hint : XviD
Duration : 9mn 33s
Bit rate : 1 920 Kbps
Width : 688 pixels
Height : 512 pixels
Display aspect ratio : 4:3
Frame rate : 25.000 fps
Color space : YUV
Chroma subsampling : 4:2:0
Bit depth : 8 bits
Scan type : Progressive
Compression mode : Lossy
Bits/(Pixel*Frame) : 0.218
Stream size : 131 MiB (81%)
Writing library : XviD 65
Audio
ID : 1
Format : AC-3
Format/Info : Audio Coding 3
Mode extension : CM (complete main)
Format settings, Endianness : Big
Codec ID : 2000
Duration : 9mn 33s
Bit rate mode : Constant
Bit rate : 448 Kbps
Channel(s) : 6 channels
Channel positions : Front: L C R, Side: L R, LFE
Sampling rate : 48.0 KHz
Bit depth : 16 bits
Compression mode : Lossy
Stream size : 30.6 MiB (19%)
Alignment : Aligned on interleaves
Interleave, duration : 40 ms (1.00 video frame)
Interleave, preload duration : 512 ms
Скриншоты:
       
       
Oписание: Кеша смотрит телевизор, но потом обижается и выключает его. Когда Вовка спрашивает о том, что случилось, то он отвечает, что про кошек, собак и слонов фильмы снимают, а про него — нет. Тогда Вовка берёт камеру и начинает снимать фильм Утро попугая Кеши
Прoдолжительность: 00:09:10

Видеокодек: Xvid
Битрейт видео: ~ 1 948 Kbps
Размер кадра: 688х512
Качество видео: DVDRip
Аудиокодек: AC3 2 ch
Битрейт аудио: 384 Kbps

Медиаинфо

Format : AVI
Format/Info : Audio Video Interleave
File size : 154 MiB
Duration : 9mn 10s
Overall bit rate : 2 342 Kbps
Director : CrimeanFox
Writing application : Lavf52.85.0
Writing library : VirtualDub build 32706/release
Video
ID : 0
Format : MPEG-4 Visual
Format profile : Advanced [email protected]
Format settings, BVOP : 2
Format settings, QPel : No
Format settings, GMC : No warppoints
Format settings, Matrix : Default (MPEG)
Muxing mode : Packed bitstream
Codec ID : XVID
Codec ID/Hint : XviD
Duration : 9mn 10s
Bit rate : 1 948 Kbps
Width : 688 pixels
Height : 512 pixels
Display aspect ratio : 4:3
Frame rate : 25.000 fps
Color space : YUV
Chroma subsampling : 4:2:0
Bit depth : 8 bits
Scan type : Progressive
Compression mode : Lossy
Bits/(Pixel*Frame) : 0.221
Stream size : 128 MiB (83%)
Writing library : XviD 1.2.1 (UTC 2008-12-04)
Audio
ID : 1
Format : AC-3
Format/Info : Audio Coding 3
Mode extension : CM (complete main)
Format settings, Endianness : Big
Codec ID : 2000
Duration : 9mn 10s
Bit rate mode : Constant
Bit rate : 384 Kbps
Channel(s) : 2 channels
Channel positions : Front: L R
Sampling rate : 48.0 KHz
Bit depth : 16 bits
Compression mode : Lossy
Stream size : 25.2 MiB (16%)
Alignment : Aligned on interleaves
Interleave, duration : 40 ms (1.00 video frame)
Interleave, preload duration : 512 ms
Скриншоты:
       
       
Oписание: «Кеша-рыболов» – это первый эпизод из серии «Новые приключения попугая Кеши»
В этой серии уже знакомый нам нахальный и самовлюбленный, но все равно симпатичный попугай Кеша опять насмотрелся телевизора. Из-за свойственной ему впечатлительности, он тут же пытается воплотить в жизнь увиденное на экране. Увлеченный новой идеей, он хватает удочку, делает заброс в окно и… таки подсекает рыбешку.
Прoдолжительность: 00:12:09

Видеокодек: Xvid
Битрейт видео: ~ 2 224 Kbps
Размер кадра: 688х512
Качество видео: DVDRip
Аудиокодек: AC3 2 ch
Битрейт аудио: 192 Kbps

Медиаинфо

Format : AVI
Format/Info : Audio Video Interleave
File size : 211 MiB
Duration : 12mn 9s
Overall bit rate : 2 426 Kbps
Director : CrimeanFox
Writing application : VirtualDubMod 1.5.10.3 | www.virtualdub-fr.org || (build 2550/release)
Writing library : VirtualDub build 32706/release
Video
ID : 0
Format : MPEG-4 Visual
Format profile : Advanced [email protected]
Format settings, BVOP : 2
Format settings, QPel : No
Format settings, GMC : No warppoints
Format settings, Matrix : Default (MPEG)
Codec ID : XVID
Codec ID/Hint : XviD
Duration : 12mn 9s
Bit rate : 2 224 Kbps
Width : 688 pixels
Height : 512 pixels
Display aspect ratio : 4:3
Frame rate : 25.000 fps
Color space : YUV
Chroma subsampling : 4:2:0
Bit depth : 8 bits
Scan type : Progressive
Compression mode : Lossy
Bits/(Pixel*Frame) : 0.253
Stream size : 193 MiB (92%)
Writing library : XviD 65
Audio
ID : 1
Format : AC-3
Format/Info : Audio Coding 3
Mode extension : CM (complete main)
Format settings, Endianness : Big
Codec ID : 2000
Duration : 12mn 9s
Bit rate mode : Constant
Bit rate : 192 Kbps
Channel(s) : 2 channels
Channel positions : Front: L R
Sampling rate : 48.0 KHz
Bit depth : 16 bits
Compression mode : Lossy
Delay relative to video : 16ms
Stream size : 16.7 MiB (8%)
Alignment : Split accross interleaves
Interleave, duration : 40 ms (1.00 video frame)
Interleave, preload duration : 500 ms
Скриншоты:
       
       
Oписание: Вновь в погоне за "красивой" жизнью, Кеша неожиданно оказывается героем. Случайно попав в компанию грабителей, он проявляет мужество и находчивость, помогает задержать преступников и даже награждается медалью.
Прoдолжительность: 00:13:20

Видеокодек: Xvid
Битрейт видео: ~ 1 954 Kbps
Размер кадра: 688х512
Качество видео: DVDRip
Аудиокодек: AC3 2 ch
Битрейт аудио: 192 Kbps

Медиаинфо

Format : AVI
Format/Info : Audio Video Interleave
File size : 206 MiB
Duration : 13mn 20s
Overall bit rate : 2 155 Kbps
Director : CrimeanFox
Writing application : VirtualDubMod 1.5.10.3 | www.virtualdub-fr.org || (build 2550/release)
Writing library : VirtualDub build 32706/release
Video
ID : 0
Format : MPEG-4 Visual
Format profile : Advanced [email protected]
Format settings, BVOP : 2
Format settings, QPel : No
Format settings, GMC : No warppoints
Format settings, Matrix : Default (MPEG)
Codec ID : XVID
Codec ID/Hint : XviD
Duration : 13mn 20s
Bit rate : 1 954 Kbps
Width : 688 pixels
Height : 512 pixels
Display aspect ratio : 4:3
Frame rate : 25.000 fps
Color space : YUV
Chroma subsampling : 4:2:0
Bit depth : 8 bits
Scan type : Progressive
Compression mode : Lossy
Bits/(Pixel*Frame) : 0.222
Stream size : 186 MiB (91%)
Writing library : XviD 65
Audio
ID : 1
Format : AC-3
Format/Info : Audio Coding 3
Mode extension : CM (complete main)
Format settings, Endianness : Big
Codec ID : 2000
Duration : 13mn 20s
Bit rate mode : Constant
Bit rate : 192 Kbps
Channel(s) : 2 channels
Channel positions : Front: L R
Sampling rate : 48.0 KHz
Bit depth : 16 bits
Compression mode : Lossy
Delay relative to video : 750ms
Stream size : 18.3 MiB (9%)
Alignment : Split accross interleaves
Interleave, duration : 40 ms (1.00 video frame)
Interleave, preload duration : 500 ms
Скриншоты:
         
         
Oписание: С каждой серией этот пернатый хулиган все больше осваивается в современной действительности. Теперь ему уже мало просмотра телепередач, он хочет иметь свой собственный плеер. Никакие доводы Вовки не действуют на упрямую птицу, и он решает добиться своего любой ценой. Кеша избирает в качестве метода добычи денег шантаж. Он инсценирует собственное похищение, и отправляет Вовке письмо, с требованием уплатить за мнимого заложника целую тысячу рублей.
Прoдолжительность: 00:13:02

Видеокодек: Xvid
Битрейт видео: ~ 2 006 Kbps
Размер кадра: 688х512
Качество видео: DVDRip
Аудиокодек: AC3 2 ch
Битрейт аудио: 192 Kbps

Медиаинфо

Format : AVI
Format/Info : Audio Video Interleave
File size : 206 MiB
Duration : 13mn 2s
Overall bit rate : 2 208 Kbps
Director : CrimeanFox
Writing application : VirtualDubMod 1.5.10.3 | www.virtualdub-fr.org || (build 2550/release)
Writing library : VirtualDub build 32706/release
Video
ID : 0
Format : MPEG-4 Visual
Format profile : Advanced [email protected]
Format settings, BVOP : 2
Format settings, QPel : No
Format settings, GMC : No warppoints
Format settings, Matrix : Default (MPEG)
Codec ID : XVID
Codec ID/Hint : XviD
Duration : 13mn 2s
Bit rate : 2 006 Kbps
Width : 688 pixels
Height : 512 pixels
Display aspect ratio : 4:3
Frame rate : 25.000 fps
Color space : YUV
Chroma subsampling : 4:2:0
Bit depth : 8 bits
Scan type : Progressive
Compression mode : Lossy
Bits/(Pixel*Frame) : 0.228
Stream size : 187 MiB (91%)
Writing library : XviD 65
Audio
ID : 1
Format : AC-3
Format/Info : Audio Coding 3
Mode extension : CM (complete main)
Format settings, Endianness : Big
Codec ID : 2000
Duration : 13mn 2s
Bit rate mode : Constant
Bit rate : 192 Kbps
Channel(s) : 2 channels
Channel positions : Front: L R
Sampling rate : 48.0 KHz
Bit depth : 16 bits
Compression mode : Lossy
Delay relative to video : 28ms
Stream size : 17.9 MiB (9%)
Alignment : Split accross interleaves
Interleave, duration : 40 ms (1.00 video frame)
Interleave, preload duration : 500 ms
Скриншоты:
         
         
Oписание: До чего все-таки техника дошла. В этой серии приключений попугая Кеши наш неугомонный пернатый друг заделается геймером. Пока Вовка в школе его компьютер оккупирует Кеша, чтобы поиграть в стрелялки. При этом хозяину он врет, что читает книгу. Смотреть Кешу и чудовище стоит уже хотя бы ради необычного зрелища – интернет-зависимой птицы...
Прoдолжительность: 00:12:42

Видеокодек: Xvid
Битрейт видео: ~ 1 960 Kbps
Размер кадра: 688х512
Качество видео: DVDRip
Аудиокодек: AC3 2 ch
Битрейт аудио: 192 Kbps

Медиаинфо

Format : AVI
Format/Info : Audio Video Interleave
File size : 196 MiB
Duration : 12mn 42s
Overall bit rate : 2 162 Kbps
Director : CrimeanFox
Writing application : VirtualDubMod 1.5.10.3 | www.virtualdub-fr.org || (build 2550/release)
Writing library : VirtualDub build 32706/release
Video
ID : 0
Format : MPEG-4 Visual
Format profile : Advanced [email protected]
Format settings, BVOP : 2
Format settings, QPel : No
Format settings, GMC : No warppoints
Format settings, Matrix : Default (MPEG)
Codec ID : XVID
Codec ID/Hint : XviD
Duration : 12mn 42s
Bit rate : 1 960 Kbps
Width : 688 pixels
Height : 512 pixels
Display aspect ratio : 4:3
Frame rate : 25.000 fps
Color space : YUV
Chroma subsampling : 4:2:0
Bit depth : 8 bits
Scan type : Progressive
Compression mode : Lossy
Bits/(Pixel*Frame) : 0.223
Stream size : 178 MiB (91%)
Writing library : XviD 65
Audio
ID : 1
Format : AC-3
Format/Info : Audio Coding 3
Mode extension : CM (complete main)
Format settings, Endianness : Big
Codec ID : 2000
Duration : 12mn 41s
Bit rate mode : Constant
Bit rate : 192 Kbps
Channel(s) : 2 channels
Channel positions : Front: L R
Sampling rate : 48.0 KHz
Bit depth : 16 bits
Compression mode : Lossy
Delay relative to video : 10ms
Stream size : 17.4 MiB (9%)
Alignment : Split accross interleaves
Interleave, duration : 40 ms (1.00 video frame)
Interleave, preload duration : 500 ms
Скриншоты:
     
     
Скриншоты:
       
       

_________________
Other forum [Profile] [PM]
Similar theme
Forum Topic Author Torrent Replies Last Post
./templates/default/images/folder_dl.gif Программы [AudioBook] Аудиокнига "Специалист по выживанию. Сборник рассказов" (Фантастика, Дим Димыч, 2010 г.) Omen
1 | 0

0 | 838

1

2012-12-17 19:30
Omen Latest
./templates/default/images/folder_dl.gif Обучающее видео Алена Кравченко - Видеошкола игры на гитаре. Сборник (диск 1, 2, 3 и видеоразборы песен группы Ария) [2009, DVDRip, RUS] sashau
1 | 0

0 | 2757

22

2013-05-14 20:20
sashau Latest
./templates/default/images/folder_dl.gif Шрифты Шрифты - Сборник шрифтов от Parachute / Parachute Fonts Family Ultimate Bundle [OTF,TTF] Omen
1 | 0

2 | 5371

43

2015-07-23 10:10
Omen Latest
./templates/default/images/folder_dl.gif Фантастика, фэнтези, ужасы, мистика Дарья Бобылева | Забытый человек [сборник] (2014) [FB2] Omen
1 | 0

0 | 1291

3

2014-11-05 21:53
Omen Latest
./templates/default/images/folder_dl.gif Эротические игры (Сборник 31в1) Эротические флеш-игры [P] [ENG] (2000-2007) Omen
1 | 0

0 | 2663

10

2016-03-07 15:00
Omen Latest
./templates/default/images/folder_dl.gif Rock 'n' Rol (Doo-Wop) Larry Chance & The Earls - 1 альбом и 1 сборник, MP3, 256-320 kbps Omen
0 | 1

0 | 1101

0

2016-06-08 12:00
Omen Latest
./templates/default/images/folder_dl.gif Архив SamDrivers 19.4 - Сборник драйверов для Windows [Multi/Ru] }{@R0N
1 | 0

1 | 801

2

2019-06-01 19:56
Dracula Latest
./templates/default/images/folder_dl.gif Драйверы SamDrivers v.20.5 – Сборник драйверов для Windows [2020, Rus/Multi, 32bit/64bit] DED
1 | 0

0 | 239

5

2020-06-14 15:37
DED Latest
./templates/default/images/folder_dl.gif Драйверы SamDrivers v.20.8 – Сборник драйверов для Windows [2020, Rus/Multi, 32bit/64bit] DED
1 | 0

0 | 229

3

2020-08-29 12:38
DED Latest
Display posts from previous:    
Reply to topic

The time now is: Today 23:23

All times are GMT + 3 Hours



You cannot post new topics in this forum
You cannot reply to topics in this forum
You cannot edit your posts in this forum
You cannot delete your posts in this forum
You cannot vote in polls in this forum
You cannot attach files in this forum
You cannot download files in this forum