Today is a free download without charge Download

Приключения Тома Сойера и Гекльберри Финна (Станислав Говорухин) (1981) DVDRip

Reply to topic
 
Author
Message

Koralina ®

Longevity: 9 years 9 months

Posts: 994

Location: Lithuania

Торрент-статистика

Post 29-Nov-2012 20:22

[Quote]

Приключения Тома Сойера и Гекльберри Финна (1981) DVDRip- Русское название: Приключения Тома Сойера и Гекльберри Финна
Год выпуска: 1981
Производство: СССР / Одесская киностудия
Жанр: Семейный, Комедия, Приключения-Дата мировой премьеры: 27 марта 1983
Дата премьеры в СССР: 27 марта 1983
Дата выхода DVD релиза: 9 сентября 2008, «Мьюзик-Трейд»-Описание фильма: Экранизация самого знаменитого романа американского писателя Марка Твена «Приключения Тома Сойера». Маленькие, но отважные герои разыскивают клад, становятся "пиратами", вступают в опасную схватку с индейцем Джо. Но самое главное в этой истории - то, что они учатся быть верными друзьями и добрыми людьми. На фильме Станислава Говорухина ставшем одной из лучших экранизаций романа, выросли целые поколения. Юные актеры, снявшиеся в этой картине, сделали прекрасную карьеру в кино. "Приключения Тома Сойера и Гекльберри Финна" - не только «обязательный фильм» в воспитании детей. Это чудесная возможность для взрослых на несколько часов перенестись в детство!-Режиссер: Станислав Говорухин
Актеры: Федор Стуков, Владислав Галкин (Сухачев), Мария Миронова, Дмитрий Рощин, Валентина Шендрикова, Владимир Конкин, Валерий Рубинчик, Всеволод Абдулов, Ролан Быков, Екатерина Васильева, Талгат Нигматулин, Бехайлу Менгаша, Игорь Сорин, Виктор Павлов, Борис Зайденберг, Федор Одиноков, Лев Перфилов-Продолжительность: 03:22:30- -Качество видео: DVDRip
Видеокодек: Xvid
Битрейт видео: 831 kb/s
Размер кадра: 512x384
Аудиокодек: MP3, 2 ch
Битрейт аудио: 128 kb/s

MediaInfo

Общее
Полное имя : D:\торрент-раздачи\Prikluchenia.Toma.Soiera.I.Geklberri.Finna.1981.O.XviD.DVDRip.avi
Формат : AVI
Формат/Информация : Audio Video Interleave
Размер файла : 1,37 Гбайт
Продолжительность : 3 ч. 22 м.
Общий поток : 966 Кбит/сек
Программа кодирования : VirtualDubMod 1.5.4.1 (build 2178/release)
Библиотека кодирования : VirtualDubMod build 2178/release
Видео
Идентификатор : 0
Формат : MPEG-4 Visual
Профиль формата : Advanced [email protected]
Параметр BVOP формата : 1
Параметр QPel формата : Нет
Параметр GMC формата : Без точки перехода
Параметр матрицы формата : Выборочная
Идентификатор кодека : XVID
Идентификатор кодека/Подсказка : XviD
Продолжительность : 3 ч. 22 м.
Битрейт : 831 Кбит/сек
Ширина : 512 пикселей
Высота : 384 пикселя
Соотношение сторон : 4:3
Частота кадров : 25,000 кадров/сек
Цветовое пространство : YUV
Субдискретизация насыщенности : 4:2:0
Битовая глубина : 8 бит
Тип развёртки : Прогрессивная
Метод сжатия : С потерями
Бит/(Пиксели*Кадры) : 0.169
Размер потока : 1,18 Гбайт (86%)
Библиотека кодирования : XviD 1.2.1 (UTC 2008-12-04)
Аудио
Идентификатор : 1
Формат : MPEG Audio
Версия формата : Version 1
Профиль формата : Layer 3
Режим : Joint stereo
Расширение режима : MS Stereo
Идентификатор кодека : 55
Идентификатор кодека/Подсказка : MP3
Продолжительность : 3 ч. 22 м.
Вид битрейта : Постоянный
Битрейт : 128 Кбит/сек
Каналы : 2 канала
Частота : 48,0 КГц
Метод сжатия : С потерями
Размер потока : 185 Мбайт (13%)
Выравнивание : Соединение по промежуткам
Продолжительность промежутка : 80 мс. (2,00 видеокадра)
Время предзагрузки промежутка : 504 мс.
Скриншоты:
         

_________________
Other forum [Profile] [PM]
Similar theme
Forum Topic Author Torrent Replies Last Post
./templates/default/images/folder_dl.gif Фильмы 2001-2010 Невероятная жизнь Уолтера Митти / The Secret Life of Walter Mitty (Бен Стиллер / Ben Stiller, 2013, Приключения, мелодрама, драма, комедия, фэнтези) WEB-DL [H.264/1080p-LQ] Omen
1 | 0

0 | 1173

36

2014-03-26 22:37
Omen Latest
./templates/default/images/folder_dl.gif Отечественные cериалы Шерлок Холмс / Сезон: 1 / Серии: 1-8 из 8 (Андрей Кавун) [2013, триллер, детектив, приключения, WEB-DL (720p)] Omen
1 | 0

0 | 632

0

2016-02-28 15:00
Omen Latest
./templates/default/images/folder_dl.gif Зарубежное кино Изгой-один: Звёздные войны. Истории / Rogue One: A Star Wars Story (Гарет Эдвардс) [2016 г., фантастика, боевик, приключения, BDRip 1080p] DUB | Чистый звук Theseus
1 | 0

0 | 8084

8

2017-03-22 11:05
Theseus Latest
./templates/default/images/folder_dl.gif Зарубежные сериалы Игра престолов / Game of Thrones / Сезон: 8 / Серии: 1-6 из 6 (Алан Тейлор / Alan Taylor) [2019, фэнтези, боевик, драма, мелодрама, приключения, WEB-DL 1080p] MVO (Amedia / Новамедиа) + Original + Sub (Rus, Eng) ¶ }{@R0N
1 | 0

0 | 2662

0

2019-05-20 12:02
}{@R0N Latest
Display posts from previous:    
Reply to topic

The time now is: Today 16:57

All times are GMT + 3 Hours



You cannot post new topics in this forum
You cannot reply to topics in this forum
You cannot edit your posts in this forum
You cannot delete your posts in this forum
You cannot vote in polls in this forum
You cannot attach files in this forum
You cannot download files in this forum