Today is a free download without charge Download

Срочная доставка / Premium Rush (Дэвид Кепп) [2012 г., боевик, триллер, BDRemux]

Reply to topic
 
Author
Message

Theseus ®

Gender:

Longevity: 9 years

Posts: 2146

Торрент-статистика

Post 29-Nov-2012 18:46

[Quote]

-Срочная доставка / Premium Rush- Год выпуска: 2012
Страна: США
Жанр: боевик, триллер
Продолжительность: 01:30:57
Перевод: Профессиональный (многоголосый, закадровый)
Режиссер: Дэвид Кепп-В ролях: Джозеф Гордон-Левитт, Дания Рамирез, Ким Перфетто, Энтони Чишолм, Эшли Остин Моррис, Уоли Паркс, Аасиф Мандви, Лорен Эшли Картер-Описание: Нью-йоркский посыльный в один прекрасный день забирает некий конверт в Колумбийском университете. Но оказывается, что содержимое послания очень интересует одного коррумпированного полицейского, который начинает преследование героя.- -Качество: BDRemux
Формат: MKV
Видео кодек: H.264
Аудио кодек: AC3 / DTS
Видео: 1920x1080 (16:9), 23,976 fps, MPEG-4 AVC, 25.2 Mbps, 0.507 bit/pixel
Аудио #1: 48.0 kHz, AC-3, 5.1 (L,C,R) + L R, LFE ch, ~640.00 kbps || Русский
Аудио #2: 48.0 kHz, DTS-HD, 5.1 (L,C,R) + L R, LFE ch, ~1561.00 kbps || Английский
Субтитры: русские, украинские, английские-

Media Info

Полное имя : D:Premium.Rush.(2012).[1080p].BDRemux.mkv
Формат : Matroska
Версия формата : Version 2
Размер файла : 17,8 Гбайт
Продолжительность : 1 ч. 30 м.
Режим общего битрейта : Переменный
Общий поток : 28,0 Мбит/сек
Дата кодирования : UTC 2012-11-29 02:37:35
Программа кодирования : mkvmerge v5.7.0 ('The Whirlwind') built on Aug 7 2012 14:11:40
Библиотека кодирования : libebml v1.2.3 + libmatroska v1.3.0
Видео
Идентификатор : 1
Формат : AVC
Формат/Информация : Advanced Video Codec
Профиль формата : [email protected]
Параметр CABAC формата : Да
Параметр ReFrames формата : 2 кадра
Идентификатор кодека : V_MPEG4/ISO/AVC
Продолжительность : 1 ч. 30 м.
Вид битрейта : Переменный
Битрейт : 25,2 Мбит/сек
Ширина : 1920 пикселей
Высота : 1080 пикселей
Соотношение сторон : 16:9
Режим частоты кадров : Постоянный
Частота кадров : 23,976 кадра/сек
Цветовое пространство : YUV
Субдискретизация насыщенности : 4:2:0
Битовая глубина : 8 бит
Тип развёртки : Прогрессивная
Бит/(Пиксели*Кадры) : 0.507
Размер потока : 16,0 Гбайт (90%)
Заголовок : «NNM-Club»
Язык : English
Default : Да
Forced : Нет
Аудио #1
Идентификатор : 2
Формат : AC-3
Формат/Информация : Audio Coding 3
Расширение режима : CM (complete main)
Параметр Endianness формата : Big
Идентификатор кодека : A_AC3
Продолжительность : 1 ч. 30 м.
Вид битрейта : Постоянный
Битрейт : 640 Кбит/сек
Каналы : 6 каналов
Расположение каналов : Front: L C R, Side: L R, LFE
Частота : 48,0 КГц
Битовая глубина : 16 бит
Метод сжатия : С потерями
Размер потока : 416 Мбайт (2%)
Язык : Russian
Default : Да
Forced : Нет
Аудио #2
Идентификатор : 3
Формат : DTS
Формат/Информация : Digital Theater Systems
Профиль формата : MA / Core
Идентификатор кодека : A_DTS
Продолжительность : 1 ч. 30 м.
Вид битрейта : Переменный
Битрейт : 1561 Кбит/сек / 1510 Кбит/сек
Каналы : 6 каналов
Расположение каналов : Front: L C R, Side: L R, LFE
Частота : 48,0 КГц
Битовая глубина : 16 бит
Метод сжатия : Без потерь / Lossy
Язык : English
Default : Нет
Forced : Нет
Текст #1
Идентификатор : 4
Формат : PGS
Идентификатор кодека : S_HDMV/PGS
Идентификатор кодека/Информация : The same subtitle format used on BDs/HD-DVDs
Язык : Russian
Default : Нет
Forced : Нет
Текст #2
Идентификатор : 5
Формат : PGS
Идентификатор кодека : S_HDMV/PGS
Идентификатор кодека/Информация : The same subtitle format used on BDs/HD-DVDs
Язык : Ukrainian
Default : Нет
Forced : Нет
Текст #3
Идентификатор : 6
Формат : PGS
Идентификатор кодека : S_HDMV/PGS
Идентификатор кодека/Информация : The same subtitle format used on BDs/HD-DVDs
Язык : English
Default : Нет
Forced : Нет
Меню
00:00:00.000 : en:Chapter 00
00:05:43.301 : en:Chapter 01
00:10:33.674 : en:Chapter 02
00:19:39.845 : en:Chapter 03
00:22:41.401 : en:Chapter 04
00:28:54.107 : en:Chapter 05
00:33:01.562 : en:Chapter 06
00:37:37.171 : en:Chapter 07
00:44:25.412 : en:Chapter 08
00:50:52.758 : en:Chapter 09
00:55:17.772 : en:Chapter 10
00:58:40.600 : en:Chapter 11
01:02:10.935 : en:Chapter 12
01:09:15.234 : en:Chapter 13
01:15:52.756 : en:Chapter 14
01:22:29.861 : en:Chapter 15

Трейлер

Скриншоты

         
-

_________________
Other forum [Profile] [PM]
Display posts from previous:    
Reply to topic

The time now is: Today 12:54

All times are GMT + 3 Hours



You cannot post new topics in this forum
You cannot reply to topics in this forum
You cannot edit your posts in this forum
You cannot delete your posts in this forum
You cannot vote in polls in this forum
You cannot attach files in this forum
You cannot download files in this forum