Today is a free download without charge Download

Король вечеринок / Van Wilder (Уолт Бекер / Walt Becker) [ 2002 , Германия, США , мелодрама, комедия , BDRip 1080p ]

Reply to topic
 
Author
Message

Delia ®

Gender:

Longevity: 10 years

Posts: 1821

Торрент-статистика

Post 29-Nov-2012 12:34

[Quote]

-Король вечеринокVan Wilder«All the girls want him. All the boys want to be him.»-- Год выпуска: 2002
Страна: Германия, США
Слоган: «All the girls want him. All the boys want to be him.»
Жанр: мелодрама, комедия
Продолжительность: 01:33:52
Режиссер: Уолт Бекер / Walt Becker
Сценарий: Брент Голдберг / Brent Goldberg, Дэвид Вагнер / David Wagner
Продюсер: Питер Абрамс / Peter Abrams, Эндрю Панай / Andrew Panay, Роберт Л. Леви / Robert L. Levy, Джонатан Комак Мартин / Jonathon Komack Martin, Филип Фон Алвенслебен / Philip von Alvensleben
Оператор: Джеймс Р. Багдонас / James R. Bagdonas
Композитор: Дэвид Нессим Лоуренс / David Nessim Lawrence В ролях: Райан Рейнольдс (Van Wilder), Тара Рид (Gwen Pearson), Тим Мэтисон (Vance Wilder Sr.), Кэл Пенн (Taj Mahal Badalandabad), Тек Холмс (Hutch), Дэниэл Косгров (Richard Bagg), Дион Ричмонд (Mini Cochran), Алекс Барнс (Gordon), Эмили Разерфорд (Jeannie), Пол Глисон (Professor McDoogle), Эрик Эстрада (играет самого себя), Кертис Армстронг (Campus Cop)-Описание: Вэн Уайлдер учится в колледже уже шесть лет, и все никак не может получить диплом. Но вовсе не из-за того, что он самый тупой ученик в группе, а потому что без ума влюблен в беззаботную студенческую жизнь.
К своему ужасу он узнает, что отец не намерен оплачивать затянувшуюся учебу своего отпрыска, и теперь у него всего два варианта: либо самостоятельно заплатить за седьмой год веселья, либо... стать, в конце концов, выпускником!
-- Бюджет: $5 000 000
Маркетинг: $15 000 000
Сборы в США: $21 305 259
Сборы в мире: $38 275 483
Мировая премьера: 4 апреля 2002-
MPAA: - Лицам до 17 лет обязательно присутствие взрослого--
Качество: BDRip
Контейнер: MKV
Видео: AVC, 1920x1040 (16:9), 10845 kbps, 23,976 fps, 0,227 bpp
Аудио №1: русский /; AC3 /; 5.1 /; 48 kHz /; 448 kbps /; 16 bit; |MVO|
Аудио №2: русский /; AC3 /; 5.1 /; 48 kHz /; 384 kbps /; 16 bit; |DVO|
Аудио №3: английский /; AC3 /; 5.1 /; 48 kHz /; 448 kbps /; 16 bit
Субтитры №1: русские
Субтитры №2: английские
Навигация по главам: есть--

Media Info

General
Unique ID : 212835096132630635633685220353127340182 (0xA01E8C69915BF0D1A0FB8337D029D896)
Complete name : E:\Korol.vecherinok.2002.BDRip-F.HD.mkv
Format : Matroska
Format version : Version 2
File size : 7.95 GiB
Duration : 1h 33mn
Overall bit rate : 12.1 Mbps
Encoded date : UTC 2012-11-29 07:53:06
Writing application : mkvmerge v5.8.0 ('No Sleep / Pillow') built on Sep 2 2012 15:37:04
Writing library : libebml v1.2.3 + libmatroska v1.3.0
Video
ID : 1
Format : AVC
Format/Info : Advanced Video Codec
Format profile : [email protected]
Format settings, CABAC : Yes
Format settings, ReFrames : 4 frames
Codec ID : V_MPEG4/ISO/AVC
Duration : 1h 33mn
Bit rate : 10.8 Mbps
Width : 1 920 pixels
Height : 1 040 pixels
Display aspect ratio : 16:9
Frame rate : 23.976 fps
Color space : YUV
Chroma subsampling : 4:2:0
Bit depth : 8 bits
Scan type : Progressive
Bits/(Pixel*Frame) : 0.227
Stream size : 6.95 GiB (87%)
Writing library : x264 core 129 r2230+696+36 4446aa2 tMod+MixAQ [[email protected]:2:0 X86_64]
Encoding settings : cabac=1 / ref=4 / deblock=1:-3:-3 / analyse=0x3:0x113 / me=umh / subme=10 / psy=1 / fade_compensate=0.00 / psy_rd=1.00:0.00 / mixed_ref=1 / me_range=48 / chroma_me=1 / trellis=2 / 8x8dct=1 / cqm=0 / deadzone=21,11 / fast_pskip=0 / chroma_qp_offset=-2 / threads=6 / lookahead_threads=1 / sliced_threads=0 / nr=0 / decimate=0 / interlaced=0 / bluray_compat=0 / constrained_intra=0 / fgo=0 / bframes=7 / b_pyramid=2 / b_adapt=2 / b_bias=0 / direct=3 / weightb=1 / open_gop=0 / weightp=2 / keyint=240 / keyint_min=23 / scenecut=40 / intra_refresh=0 / rc=2pass / mbtree=0 / bitrate=10845 / ratetol=1.0 / qcomp=0.75 / qpmin=0 / qpmax=69 / qpstep=4 / cplxblur=20.0 / qblur=0.5 / ip_ratio=1.40 / pb_ratio=1.30 / aq=2 / aq-strength=1.00 / aq-sensitivity=10.00 / aq-ifactor=1.00 / aq-pfactor=1.00 / aq-bfactor=1.00 / aq2=0
Language : English
Default : Yes
Forced : No
Color primaries : BT.709-5, BT.1361, IEC 61966-2-4, SMPTE RP177
Transfer characteristics : BT.709-5, BT.1361
Matrix coefficients : BT.709-5, BT.1361, IEC 61966-2-4 709, SMPTE RP177
Audio #1
ID : 2
Format : AC-3
Format/Info : Audio Coding 3
Mode extension : CM (complete main)
Codec ID : A_AC3
Duration : 1h 33mn
Bit rate mode : Constant
Bit rate : 448 Kbps
Channel(s) : 6 channels
Channel positions : Front: L C R, Side: L R, LFE
Sampling rate : 48.0 KHz
Bit depth : 16 bits
Compression mode : Lossy
Stream size : 301 MiB (4%)
Title : MVO
Language : Russian
Default : Yes
Forced : No
Audio #2
ID : 3
Format : AC-3
Format/Info : Audio Coding 3
Mode extension : CM (complete main)
Codec ID : A_AC3
Duration : 1h 33mn
Bit rate mode : Constant
Bit rate : 384 Kbps
Channel(s) : 6 channels
Channel positions : Front: L C R, Side: L R, LFE
Sampling rate : 48.0 KHz
Bit depth : 16 bits
Compression mode : Lossy
Stream size : 258 MiB (3%)
Title : DVO . Пирамида
Language : Russian
Default : No
Forced : No
Audio #3
ID : 4
Format : AC-3
Format/Info : Audio Coding 3
Mode extension : CM (complete main)
Codec ID : A_AC3
Duration : 1h 33mn
Bit rate mode : Constant
Bit rate : 448 Kbps
Channel(s) : 6 channels
Channel positions : Front: L C R, Side: L R, LFE
Sampling rate : 48.0 KHz
Bit depth : 16 bits
Compression mode : Lossy
Stream size : 301 MiB (4%)
Language : English
Default : No
Forced : No
Text #1
ID : 5
Format : UTF-8
Codec ID : S_TEXT/UTF8
Codec ID/Info : UTF-8 Plain Text
Language : Russian
Default : No
Forced : No
Text #2
ID : 6
Format : UTF-8
Codec ID : S_TEXT/UTF8
Codec ID/Info : UTF-8 Plain Text
Language : English
Default : No
Forced : No
Menu
00:00:00.000 : en:00:00:00.000
00:06:35.394 : en:00:06:35.394
00:09:31.028 : en:00:09:31.028
00:15:42.357 : en:00:15:42.357
00:18:56.969 : en:00:18:56.969
00:24:56.161 : en:00:24:56.161
00:29:00.739 : en:00:29:00.739
00:34:35.822 : en:00:34:35.822
00:41:14.137 : en:00:41:14.137
00:45:24.096 : en:00:45:24.096
00:49:04.900 : en:00:49:04.900
00:53:26.286 : en:00:53:26.286
01:03:08.367 : en:01:03:08.367
01:08:04.829 : en:01:08:04.829
01:12:39.438 : en:01:12:39.438
01:21:42.104 : en:01:21:42.104


Скриншоты

       
       

_________________
Человек – это канат, натянутый между животным и сверхчеловеком, – канат над пропастью.
В человеке ценно то, что он мост, а не цель. Фридрих Ницше
Other forum [Profile] [PM]
Display posts from previous:    
Reply to topic

The time now is: Today 04:31

All times are GMT + 3 Hours



You cannot post new topics in this forum
You cannot reply to topics in this forum
You cannot edit your posts in this forum
You cannot delete your posts in this forum
You cannot vote in polls in this forum
You cannot attach files in this forum
You cannot download files in this forum