Today is a free download without charge Download

1408 (Режиссёрская версия) / 1408 (Director's Cut) (Микаэль Хафстрем) [1080p] [2007 г., Мистика, ужасы, BDRip 1080p]

Reply to topic
 
Author
Message

Delia ®

Gender:

Longevity: 10 years

Posts: 1821

Торрент-статистика

Post 28-Nov-2012 11:31

[Quote]

-14081408«Отель 'Дельфин' приглашает Вас остановиться в любом из наших роскошных номеров. Кроме одного…»-- Год выпуска: 2007
Страна: США
Жанр: ужасы, триллер
Продолжительность: 01:52:26
Режиссер: Микаэль Хофстрём / Mikael Håfström
Сценарий: Мэтт Гринберг / Matt Greenberg, Скотт Александер / Scott Alexander, Ларри Карацевски / Larry Karaszewski, Стивен Кинг / Stephen King
Продюсер: Келли Дэннис / Kelly Dennis, Лоренцо Ди Бонавентура / Lorenzo di Bonaventura, Антония Калмакофф / Antonia Kalmacoff В ролях: Джон Кьюсак (Mike Enslin), Сэмюэл Л. Джексон (Gerald Olin), Мэри МакКормак (Lily), Тони Шэлуб (Sam Farrell), Пол Бирчард (Mr. Innkeeper), Марго Лейкестер (Mrs. Innkeeper), Уолтер Льюис (Book Store Cashier), Эрик Мейерс (Man #1 at Book Signing), Дэвид Николсон (Man #2 at Book Signing), Холли Хэйес (Lady at Book Signing), Александра Силбер (Young Woman at Book Signing), Йохан Урб (Surfer Dude)
Описание: Известный писатель Майк Энслин, сочиняющий свои романы в жанре «ужасы», пишет очередную книгу о необычных явлениях и полтергейсте в отелях. Не верящий в существование загробной жизни, Энслин решает поселиться в печально известном номере 1408 гостиницы «Дельфин», который пустует многие годы: по слухам, там обитают привидения. Невзирая на предупреждения старшего менеджера мистера Джеральда Олина о грозящей опасности, упрямец настаивает на своем, даже не предполагая, каким кошмаром обернется предстоящая ночь...-- Бюджет: $25 000 000
Сборы в США: $71 985 628
Сборы в России: $3 846 359
Сборы в мире: $132 033 383
Мировая премьера: 12 июня 2007
Релиз на DVD: 6 ноября 2007, «West Video»


Качество: BDRip
Контейнер: MKV
Видео: AVC, 1920x800 (2.40:1), 8790 kbps, 23,976 fps, 0,239 bpp
Аудио №1: русский /; AC3 /; 5.1 /; 48 kHz /; 448 kbps /; 16 bit; |Дубляж|
Аудио №2: русский /; AC3 /; 5.1 /; 48 kHz /; 448 kbps /; 16 bit; |П.Гланц и И.Королёва|
Аудио №3: английский /; AC3 /; 5.1 /; 48 kHz /; 384 kbps /; 16 bit
Субтитры №1: русские
Субтитры №2: английские
В дубляже режиссёрская версия не выпускалась, поэтому в доп сцены вставлена многоголоска (только центр и только диалоги) По иронии судьбы П.Гланц озвучивает главного героя в дубляже и в многоголоске тоже он.
Отличия от театральной версии: SB
--

Media Info

General
Unique ID : 247150331100322114387688415478112748542 (0xB9EF6C1EADF80D8CB8129AC9F03683FE)
Complete name : E:\1408(2007)BDRip-F.HD.mkv
Format : Matroska
Format version : Version 2
File size : 7.91 GiB
Duration : 1h 52mn
Overall bit rate : 10.1 Mbps
Encoded date : UTC 2012-11-28 07:26:39
Writing application : mkvmerge v5.8.0 ('No Sleep / Pillow') built on Sep 2 2012 15:37:04
Writing library : libebml v1.2.3 + libmatroska v1.3.0
Video
ID : 1
Format : AVC
Format/Info : Advanced Video Codec
Format profile : [email protected]
Format settings, CABAC : Yes
Format settings, ReFrames : 4 frames
Codec ID : V_MPEG4/ISO/AVC
Duration : 1h 52mn
Bit rate : 8 790 Kbps
Width : 1 920 pixels
Height : 800 pixels
Display aspect ratio : 2.40:1
Frame rate : 23.976 fps
Color space : YUV
Chroma subsampling : 4:2:0
Bit depth : 8 bits
Scan type : Progressive
Bits/(Pixel*Frame) : 0.239
Stream size : 6.74 GiB (85%)
Writing library : x264 core 129 r2230+696+36 4446aa2 tMod+MixAQ [[email protected]:2:0 X86_64]
Encoding settings : cabac=1 / ref=4 / deblock=1:-3:-3 / analyse=0x3:0x113 / me=umh / subme=10 / psy=1 / fade_compensate=0.00 / psy_rd=1.00:0.15 / mixed_ref=1 / me_range=48 / chroma_me=1 / trellis=2 / 8x8dct=1 / cqm=0 / deadzone=21,11 / fast_pskip=0 / chroma_qp_offset=-3 / threads=6 / lookahead_threads=1 / sliced_threads=0 / nr=0 / decimate=0 / interlaced=0 / bluray_compat=0 / constrained_intra=0 / fgo=0 / bframes=10 / b_pyramid=2 / b_adapt=2 / b_bias=0 / direct=3 / weightb=1 / open_gop=0 / weightp=2 / keyint=240 / keyint_min=23 / scenecut=40 / intra_refresh=0 / rc=2pass / mbtree=0 / bitrate=8790 / ratetol=1.0 / qcomp=0.75 / qpmin=0 / qpmax=69 / qpstep=4 / cplxblur=20.0 / qblur=0.5 / ip_ratio=1.40 / pb_ratio=1.30 / aq=2 / aq-strength=1.00 / aq-sensitivity=10.00 / aq-ifactor=1.00 / aq-pfactor=1.00 / aq-bfactor=1.00 / aq2=0
Language : English
Default : Yes
Forced : No
Audio #1
ID : 2
Format : AC-3
Format/Info : Audio Coding 3
Mode extension : CM (complete main)
Codec ID : A_AC3
Duration : 1h 52mn
Bit rate mode : Constant
Bit rate : 448 Kbps
Channel(s) : 6 channels
Channel positions : Front: L C R, Side: L R, LFE
Sampling rate : 48.0 KHz
Bit depth : 16 bits
Compression mode : Lossy
Stream size : 360 MiB (4%)
Language : Russian
Default : Yes
Forced : No
Audio #2
ID : 3
Format : AC-3
Format/Info : Audio Coding 3
Mode extension : CM (complete main)
Codec ID : A_AC3
Duration : 1h 52mn
Bit rate mode : Constant
Bit rate : 448 Kbps
Channel(s) : 6 channels
Channel positions : Front: L C R, Side: L R, LFE
Sampling rate : 48.0 KHz
Bit depth : 16 bits
Compression mode : Lossy
Stream size : 360 MiB (4%)
Title : П.Гланц и И.Королёва
Language : Russian
Default : No
Forced : No
Audio #3
ID : 4
Format : AC-3
Format/Info : Audio Coding 3
Mode extension : CM (complete main)
Codec ID : A_AC3
Duration : 1h 52mn
Bit rate mode : Constant
Bit rate : 384 Kbps
Channel(s) : 6 channels
Channel positions : Front: L C R, Side: L R, LFE
Sampling rate : 48.0 KHz
Bit depth : 16 bits
Compression mode : Lossy
Stream size : 309 MiB (4%)
Language : English
Default : No
Forced : No
Text #1
ID : 5
Format : UTF-8
Codec ID : S_TEXT/UTF8
Codec ID/Info : UTF-8 Plain Text
Language : Russian
Default : No
Forced : No
Text #2
ID : 6
Format : UTF-8
Codec ID : S_TEXT/UTF8
Codec ID/Info : UTF-8 Plain Text
Language : English
Default : No
Forced : No

Знаете ли Вы, что...

  • Начало съемок - 13 июля 2006.
  • В своем рассказе Стивен Кинг вдохновлялся историей настоящего парапсихолога Кристофера Чэйкона, который описал свое исследование номера, одержимого духами, в отеле «Дель Коронадо» в Коронадо, штат Калифорния.
  • Рассказ Кинга фактически никогда не был опубликован в печатном виде. Сюжет он использовал для своей книги «О писательском мастерстве», однако история ему нравилась, поэтому он включил ее в цикл рассказов для аудио-сборника.
  • Жену Майка Лили должна была сыграть Кэйт Уолш. Однако актриса была связана контрактом с сериалом «Анатомия Грэйс» и на момент съемок не смогла покинуть шоу. Ее заменила Мэри МакКормак.
  • Одну из жертв номера 1408 зовут Грэйди. Грэйди также имя одной из героинь «Сияния», другой истории Кинга об ужасном отеле.
  • В фильме немалое количество указаний на несчастливое число 13. Так, номер 1408 при пересчете всех цифр дает 13; сам он находится на 13 этаже (при том, что в отеле как бы нет 13-го этажа, и после 12-го сразу идет 14-й); на ключе к номеру стоит число 6214, что тоже дает 13; адрес отеля - Ленсингтон, 2245 (13!); и, наконец, первая жертва погибла в отеле в 1912 году: вновь при пересчете - 13.
  • Одна из ранних книг Майка называется «Долгий путь домой». Управляющий отелем Джералд Олин путает название и произносит его как «Долгая прогулка»; так называется один из романов Кинга.
  • «В роли» отеля «Дельфин» выступил отель «Рузвельт», расположенный на углу 45-й улицы и Мэдисон-авеню в Нью-Йорке.
  • Водные эпизоды были отсняты в специальном подводном павильоне студии «Пайнвуд», Айвер-Хет, графство Бэкингемшир, Англия.
  • В своем выступлении перед раздачей автографов Майк Энслин говорит: «Бояться надо». Это одна из любимых фраз классика американского кинохоррора, режиссера, сценариста и продюсера Джорджа Ромеро, друга Стивена Кинга, поставившего два фильма по его произведениям - «Калейдоскоп ужасов» (1982) и «Темная половина» (1993). Ромеро любит произносить эту фразу на публике и часто использует ее как часть своего автографа.
  • Топор, которым пожарный взламывает дверь, - точно такой же, какой был у Джека Торранса в фильме Стэнли Кубрика «Сияние» (1980), экранизации одноименного романа Стивена Кинга.
  • Один раз в фильме Майк Энслин появляется в головном уборе с надписью «Паранойя - это полное понимание». Это отсылка к одной из любимых поговорок Стивена Кинга: «Идеальная паранойя - это идеальное понимание».
  • В начале своего пребывания в номере 1408 Майк Энслин произносит: «Зло банально», - сказал кто-то из великих умов». Речь идет о немецком политическом теоретике Ханне Арендт, которая писала о «банальности зла» в своем эссе «Эйхманн в Иерусалиме».
  • У Майка Энслина есть шапка с логотипом бейсбольной команды «Чикаго Уайт Сокс». Чикаго - родной город актера Джона Кьюсака.
  • Кадр, в котором Майк Энслин висит на карнизе, - это цитата из классического триллера Альфреда Хичкока «Головокружение» (1958).
  • Персонаж Джексона говорит, что в комнате 1408 было 56 смертей. После этого он вручает герою Кьюсака бутылку коньяка «Les Cinquante Sept Deces» (57 смертей).
  • Название гостиницы - отсылка к книге Харуки Мураками «Охота на овец» и её продолжению «Дэнс, Дэнс, Дэнс». В них присутствовал отель «Дельфин», где происходили странные вещи.
  • В сцене, где Майк во второй раз приходит в себя на берегу моря, на его костюме видна надпись Psycho (англ.) - это реминисценция фильма «Психо» режиссёра Альфреда Хичкока.
  • Когда Майк, только вселившись в номер, достает из тумбочки Библию и открывает где-то в середине, крупным планом показывают две страницы, вверху которых написано Samuel. Именно Самюэлем зовут актёра, снявшегося в этом фильме в роли управляющего отелем «Дельфин» (Сэмюэль Л. Джексон).


Скриншоты

     
     
     

_________________
Человек – это канат, натянутый между животным и сверхчеловеком, – канат над пропастью.
В человеке ценно то, что он мост, а не цель. Фридрих Ницше
Other forum [Profile] [PM]
Display posts from previous:    
Reply to topic

The time now is: Today 13:11

All times are GMT + 3 Hours



You cannot post new topics in this forum
You cannot reply to topics in this forum
You cannot edit your posts in this forum
You cannot delete your posts in this forum
You cannot vote in polls in this forum
You cannot attach files in this forum
You cannot download files in this forum