Today is a free download without charge Download

Восстание зомби / Rise of the Zombies (Ник Лион) [2012.., Боевик, Ужасы, Триллер, 720p-LQ, HDTVRip]

Reply to topic
 
Author
Message

Meshanik ®

Gender:

Longevity: 8 years 10 months

Posts: 3866

Location: Los Angeles

Торрент-статистика

Post 27-Nov-2012 18:02

[Quote]

Восстание зомби / Rise of the Zombies-
Русское название: Восстание зомби
Оригинальное название: Rise of the Zombies
Год выпуска: 2012
Производство: США | SyFy Presents
Жанр: Боевик, Ужасы, Триллер
Продолжительность: 01:34:16
Перевод: Многоголосый закадровый, любительский [ViruseProject]
Субтитры: Отсутствуют-Дата мировой премьеры: 27 октября 2012
Режиссер: Ник Лион
Продюсер: Дэвид Майкл Лэтт, Пол Бейлс, Мэри Е. Браун
В ролях: Мэриэл Хемингуэй, Итан Сапли, ЛеВар Бёртон, Чэд Линдберг, Дэнни Трехо, Хезер Сайрус Хемменс, Эктор Луис Бустаманте, Aнжелика Чинели, Энди Клеменс, Фрэнк Форбс ...-Описание фильма:
Герои спасаются от зомби на острове Алькатрас — знаменитом своей тюрьмой. Но и там их достают ходячие мертвецы. У них остается единственная надежда — найти ученого, который по слухам обнаружил лекарство против чумы зомби…- -Качество видео: HDTVRip
Видеокодек: MPEG-4 AVC/H.264
Битрейт видео: 3135 Кбит/с
Размер кадра: 1280x720
Аудио 1: Русский (AC3, 6 ch, 384 Кбит/c)
Аудио 2: Английский (AC3, 6 ch, 384 Кбит/c)
-

MediaInfo

Общее
Уникальный идентификатор : 226321210304901875494949233387945907851 (0xAA43E12D4F37552A92B22337464CD68B)
Полное имя : E:\Vosstanie zombi.2012.L.720p.HDTV.mkv
Формат : Matroska
Версия формата : Version 2
Размер файла : 2,62 Гбайт
Продолжительность : 1 ч. 34 м.
Общий поток : 3982 Кбит/сек
Дата кодирования : UTC 2012-11-22 19:39:11
Программа кодирования : mkvmerge v3.0.0 ('Hang up your Hang-Ups') built on Dec 12 2009 15:20:35
Библиотека кодирования : libebml v0.7.9 + libmatroska v0.8.1
Видео
Идентификатор : 1
Формат : AVC
Формат/Информация : Advanced Video Codec
Профиль формата : [url=mailto:[email protected]][email protected][/url]
Параметр CABAC формата : Да
Параметр ReFrames формата : 5 кадров
Идентификатор кодека : V_MPEG4/ISO/AVC
Продолжительность : 1 ч. 34 м.
Битрейт : 3135 Кбит/сек
Ширина : 1280 пикселей
Высота : 720 пикселей
Соотношение сторон : 16:9
Режим частоты кадров : Постоянный
Частота кадров : 23,976 кадра/сек
Цветовое пространство : YUV
Субдискретизация насыщенности : 4:2:0
Битовая глубина : 8 бит
Тип развёртки : Прогрессивная
Бит/(Пиксели*Кадры) : 0.142
Размер потока : 2,06 Гбайт (79%)
Библиотека кодирования : x264 core 128 r2216 198a7ea
Настройки программы : cabac=1 / ref=5 / deblock=1:0:0 / analyse=0x3:0x113 / me=umh / subme=8 / psy=1 / psy_rd=1.00:0.00 / mixed_ref=1 / me_range=16 / chroma_me=1 / trellis=1 / 8x8dct=1 / cqm=0 / deadzone=21,11 / fast_pskip=1 / chroma_qp_offset=-2 / threads=18 / lookahead_threads=3 / sliced_threads=0 / nr=0 / decimate=1 / interlaced=0 / bluray_compat=0 / constrained_intra=0 / bframes=3 / b_pyramid=2 / b_adapt=2 / b_bias=0 / direct=3 / weightb=1 / open_gop=0 / weightp=2 / keyint=250 / keyint_min=23 / scenecut=40 / intra_refresh=0 / rc_lookahead=50 / rc=crf / mbtree=1 / crf=19.0 / qcomp=0.60 / qpmin=0 / qpmax=69 / qpstep=4 / ip_ratio=1.40 / aq=1:1.00
Язык : English
Default : Нет
Forced : Нет
Коэффициенты матрицы : BT.709
Аудио #1
Идентификатор : 2
Формат : AC-3
Формат/Информация : Audio Coding 3
Расширение режима : CM (complete main)
Параметр Endianness формата : Big
Идентификатор кодека : A_AC3
Продолжительность : 1 ч. 34 м.
Вид битрейта : Постоянный
Битрейт : 384 Кбит/сек
Каналы : 6 каналов
Расположение каналов : Front: L C R, Side: L R, LFE
Частота : 48,0 КГц
Битовая глубина : 16 бит
Метод сжатия : С потерями
Размер потока : 259 Мбайт (10%)
Язык : Russian
Default : Да
Forced : Нет
Аудио #2
Идентификатор : 3
Формат : AC-3
Формат/Информация : Audio Coding 3
Расширение режима : CM (complete main)
Параметр Endianness формата : Big
Идентификатор кодека : A_AC3
Продолжительность : 1 ч. 34 м.
Вид битрейта : Постоянный
Битрейт : 384 Кбит/сек
Каналы : 6 каналов
Расположение каналов : Front: L C R, Side: L R, LFE
Частота : 48,0 КГц
Битовая глубина : 16 бит
Метод сжатия : С потерями
Размер потока : 259 Мбайт (10%)
Язык : English
Default : Нет
Forced : Нет
-

Скриншоты:

           
-
Other forum [Profile] [PM]
Display posts from previous:    
Reply to topic

The time now is: Today 09:07

All times are GMT + 3 Hours



You cannot post new topics in this forum
You cannot reply to topics in this forum
You cannot edit your posts in this forum
You cannot delete your posts in this forum
You cannot vote in polls in this forum
You cannot attach files in this forum
You cannot download files in this forum