Today is a free download without charge Download

Цвет ночи / Color of Night (Ричард Раш / Richard Rush) [ 1994 , США , триллер, драма, мелодрама , BDRip1080p ]

Reply to topic
 
Author
Message

Delia ®

Gender:

Longevity: 10 years

Posts: 1821

Торрент-статистика

Post 26-Nov-2012 15:15

[Quote]

-Цвет ночиColor of Night«In the heat of desire, love can turn to deception. Nothing is what it seems when day turn into night»-- Год выпуска: 1994
Страна: США
Жанр: триллер, драма, мелодрама, детектив
Продолжительность: 02:19:18
Перевод: Профессиональный (многоголосый, закадровый)
Режиссер: Ричард Раш / Richard Rush
Сценарий: Билли Рэй / Billy Ray, Мэтью Чэпмен / Matthew Chapman
Продюсер: Базз Фейтшанс / Buzz Feitshans, Дэвид Маталон / David Matalon, Эндрю Дж. Вайна / Andrew G. Vajna, Дэвид Уиллис / David Willis, Кармин Зоззора / Carmine Zozzora
Оператор: Дитрих Ломанн / Dietrich Lohmann
Композитор: Доминик Фронтьер / Dominic Frontiere В ролях: Брюс Уиллис (Dr. Bill Capa), Джейн Марч (Rose), Рубен Бладес (Lt. Hector Martinez), Лесли Энн Уоррен (Sondra Dorio), Скотт Бакула (Dr. Bob Moore), Брэд Дуриф (Clark), Лэнс Хенриксен (Buck), Кевин Дж. О’Коннор (Casey Heinz), Эндрю Лоури (Dale Dexter), Эрик Ла Салль (Det. Anderson), Джефф Кори (Ashland), Кэтлин Уилхойт (Michelle)
Описание: Брюс Уиллис в роли нью-йоркского психолога, потерявшего пациентку - она выбросилась в окно прямо во время сеанса. Чтобы прийти в себя, он едет в Лос-Анджелес к своему другу, с которым они вместе учились.
Там он присутствует на групповом сеансе психотерапии, а ночью друга зверски убивают ножом с нанесением множества ножевых ранений. Не без участия полиции герой Уиллиса берется вести дальше эту группу, так как следователь подозревает, что убийцей может быть один из больных...


MPAA: - Лицам до 17 лет обязательно присутствие взрослого

Качество: BDRip
Контейнер: MKV
Видео: AVC, 1920x1040 (16:9), 7015 kbps, 23,976 fps, 0,147 bpp
Аудио №1: русский /; AC3 /; 2.0 /; 48 kHz /; 192 kbps /; 16 bit; |Многоголосый закадровый, Нева-1|
Аудио №2: русский /; AC3 /; 2.0 /; 48 kHz /; 192 kbps /; 16 bit; |Многоголосый закадровый, РенТВ|
Аудио №3: русский /; AC3 /; 5 /; 48 kHz /; 384 kbps /; 16 bit; |Одноголосый закадровый, Ю.Живов|
Аудио №4: английский /; AC3 /; 5 /; 48 kHz /; 384 kbps /; 16 bit
Субтитры №1: русские
Субтитры №2: английские
Навигация по главам: есть--

Media Info

General
Unique ID : 192902528497030876338598222499624645372 (0x911FACF3FE51E095B24AE8F1B64DF2FC)
Complete name : E:\Color of Night (1994)BDRip-F.HD.mkv
Format : Matroska
Format version : Version 2
File size : 7.95 GiB
Duration : 2h 19mn
Overall bit rate : 8 169 Kbps
Encoded date : UTC 2012-11-26 09:40:10
Writing application : mkvmerge v5.8.0 ('No Sleep / Pillow') built on Sep 2 2012 15:37:04
Writing library : libebml v1.2.3 + libmatroska v1.3.0
Video
ID : 1
Format : AVC
Format/Info : Advanced Video Codec
Format profile : [email protected]
Format settings, CABAC : Yes
Format settings, ReFrames : 4 frames
Codec ID : V_MPEG4/ISO/AVC
Duration : 2h 19mn
Bit rate : 7 015 Kbps
Width : 1 920 pixels
Height : 1 040 pixels
Display aspect ratio : 16:9
Frame rate : 23.976 fps
Color space : YUV
Chroma subsampling : 4:2:0
Bit depth : 8 bits
Scan type : Progressive
Bits/(Pixel*Frame) : 0.147
Stream size : 6.67 GiB (84%)
Writing library : x264 core 129 r2230 1cffe9f
Encoding settings : cabac=1 / ref=4 / deblock=1:-3:-3 / analyse=0x3:0x113 / me=umh / subme=10 / psy=1 / psy_rd=0.75:0.15 / mixed_ref=1 / me_range=32 / chroma_me=1 / trellis=2 / 8x8dct=1 / cqm=0 / deadzone=21,11 / fast_pskip=0 / chroma_qp_offset=1 / threads=6 / lookahead_threads=1 / sliced_threads=0 / nr=0 / decimate=0 / interlaced=0 / bluray_compat=0 / constrained_intra=0 / bframes=9 / b_pyramid=2 / b_adapt=2 / b_bias=0 / direct=3 / weightb=1 / open_gop=0 / weightp=2 / keyint=240 / keyint_min=23 / scenecut=40 / intra_refresh=0 / rc_lookahead=110 / rc=2pass / mbtree=1 / bitrate=7015 / ratetol=1.0 / qcomp=0.75 / qpmin=0 / qpmax=69 / qpstep=4 / cplxblur=20.0 / qblur=0.5 / ip_ratio=1.35 / aq=2:0.60
Language : English
Default : Yes
Forced : No
Color primaries : BT.709-5, BT.1361, IEC 61966-2-4, SMPTE RP177
Transfer characteristics : BT.709-5, BT.1361
Matrix coefficients : BT.709-5, BT.1361, IEC 61966-2-4 709, SMPTE RP177
Audio #1
ID : 2
Format : AC-3
Format/Info : Audio Coding 3
Mode extension : CM (complete main)
Codec ID : A_AC3
Duration : 2h 19mn
Bit rate mode : Constant
Bit rate : 192 Kbps
Channel(s) : 2 channels
Channel positions : Front: L R
Sampling rate : 48.0 KHz
Bit depth : 16 bits
Compression mode : Lossy
Stream size : 191 MiB (2%)
Title : Нева-1
Language : Russian
Default : Yes
Forced : No
Audio #2
ID : 3
Format : AC-3
Format/Info : Audio Coding 3
Mode extension : CM (complete main)
Codec ID : A_AC3
Duration : 2h 19mn
Bit rate mode : Constant
Bit rate : 192 Kbps
Channel(s) : 2 channels
Channel positions : Front: L R
Sampling rate : 48.0 KHz
Bit depth : 16 bits
Compression mode : Lossy
Stream size : 191 MiB (2%)
Title : РенТВ
Language : Russian
Default : No
Forced : No
Audio #3
ID : 4
Format : AC-3
Format/Info : Audio Coding 3
Mode extension : CM (complete main)
Codec ID : A_AC3
Duration : 2h 19mn
Bit rate mode : Constant
Bit rate : 384 Kbps
Channel(s) : 5 channels
Channel positions : Front: L C R, Side: L R
Sampling rate : 48.0 KHz
Bit depth : 16 bits
Compression mode : Lossy
Stream size : 383 MiB (5%)
Title : Ю.Живов
Language : Russian
Default : No
Forced : No
Audio #4
ID : 5
Format : AC-3
Format/Info : Audio Coding 3
Mode extension : CM (complete main)
Codec ID : A_AC3
Duration : 2h 19mn
Bit rate mode : Constant
Bit rate : 384 Kbps
Channel(s) : 5 channels
Channel positions : Front: L C R, Side: L R
Sampling rate : 48.0 KHz
Bit depth : 16 bits
Compression mode : Lossy
Stream size : 383 MiB (5%)
Language : English
Default : No
Forced : No
Text #1
ID : 6
Format : UTF-8
Codec ID : S_TEXT/UTF8
Codec ID/Info : UTF-8 Plain Text
Language : Russian
Default : No
Forced : No
Text #2
ID : 7
Format : UTF-8
Codec ID : S_TEXT/UTF8
Codec ID/Info : UTF-8 Plain Text
Language : English
Default : No
Forced : No
Menu
00:00:00.000 : en:Chapter 1
00:08:27.464 : en:Chapter 2
00:17:53.196 : en:Chapter 3
00:29:09.706 : en:Chapter 4
00:37:53.103 : en:Chapter 5
00:46:50.098 : en:Chapter 6
00:56:37.477 : en:Chapter 7
01:04:18.062 : en:Chapter 8
01:16:07.104 : en:Chapter 9
01:29:03.463 : en:Chapter 10
01:52:58.897 : en:Chapter 11
02:04:57.448 : en:Chapter 12

Знаете ли Вы, что...

  • Фильм получил широкую известность благодаря песне Лоурен Кристи «Color of the night».
  • Номинировался на Razzie Awards (Золотая малина) по всем номинациям сразу, но победил всего в одной (худший фильм).

Скриншоты

       
     

_________________
Человек – это канат, натянутый между животным и сверхчеловеком, – канат над пропастью.
В человеке ценно то, что он мост, а не цель. Фридрих Ницше
Other forum [Profile] [PM]
Display posts from previous:    
Reply to topic

The time now is: Today 02:47

All times are GMT + 3 Hours



You cannot post new topics in this forum
You cannot reply to topics in this forum
You cannot edit your posts in this forum
You cannot delete your posts in this forum
You cannot vote in polls in this forum
You cannot attach files in this forum
You cannot download files in this forum