Today is a free download without charge Download

Патруль / End of Watch (Дэвид Эйр) [2012 г., триллер, драма, криминал, BDRip1080p]

Reply to topic
 
Author
Message

sassad ®

Gender:

Longevity: 10 years

Posts: 1214

Location: Галич

Торрент-статистика

Post 25-Nov-2012 16:08

[Quote]

Патруль / End of Watch-
Год выпуска: 2012
Страна: США
Жанр: триллер, драма, криминал
Продолжительность: 109 мин. / 01:49
Перевод: Профессиональный(дублированный)-Режиссер: Дэвид Эйр
Продюссер: Дэвид Эйр, Мэтт Джексон, Джон Лешер
Сценарий: Дэвид Эйр
Бюджет: $7 000 000
Премьера в мире: 8 сентября 2012
R - Лицам до 17 лет обязательно присутствие взрослого
7.90 (17 127)

В ролях: Джейк Джилленхол, Майкл Пенья, Анна Кендрик, Натали Мартинез, Америка Феррера, Фрэнк Грилло, Дэвид Харбор, Кле Шахид Слоун, Джейм Фицсаймонс, Коуди Хорн, Шондрелла Эйвери, Эвертон Лоуренс, Ликвид 'Дэвил' Уилкенс, Джеймс 'Пистол' МакНил, Зоун, Элвин Норман, Ричард Кебрал, Дьямоник, Морис Комт, Яхира Гарсиа, Мэнни Хименез мл., Николь Баррерас, Майкл Монкс, Хью Дэйли, Кристи Ву, Дэвид Кастанеда, Кендес Смит, Рамон Камачо, Кевин Вэнс, Корина Калдерон, Дэвид Фернандез, Нелли Кастилло, МакКинли Фриман, Джон А. Руссо, Том Спенсер-Описание: Они были лучшими копами Лос-Анджелеса. Бесстрашные и везучие напарники, они стали друг другу как братья. Но однажды парни залезли в самое логово преступного мира города, по-глупому подставились и сами стали мишенью... Кто успеет первым разрядить обойму?-Качество: BDRip1080p
Формат: MKV
Видео кодек: H.26x
Аудио кодек: DTS
Видео: MPEG-4 AVC, 16224 Кбит/с, 1920x1080
Аудио: Русский, английский (DTS, 6 ch, 1510 Кбит/c)

M.I

Код:
End.of.Watch.2012.1080p.BluRay.Rus.Eng.HDCLUB.mkv
Format : Matroska
Format version : Version 2
File size : 14.6 GiB
Duration : 1h 48mn
Overall bit rate : 19.2 Mbps
Movie name : End of Watch (2012)
Encoded date : UTC 2012-11-24 07:00:24
Writing application : mkvmerge v5.8.0 ('No Sleep / Pillow') built on Sep 2 2012 15:37:04
Writing library : libebml v1.2.3 + libmatroska v1.3.0
Video
ID : 1
Format : AVC
Format/Info : Advanced Video Codec
Format profile : [email protected]
Format settings, CABAC : Yes
Format settings, ReFrames : 4 frames
Codec ID : V_MPEG4/ISO/AVC
Duration : 1h 48mn
Bit rate : 16.2 Mbps
Width : 1 920 pixels
Height : 1 080 pixels
Display aspect ratio : 16:9
Frame rate mode : Constant
Frame rate : 24.000 fps
Color space : YUV
Chroma subsampling : 4:2:0
Bit depth : 8 bits
Scan type : Progressive
Bits/(Pixel*Frame) : 0.326
Stream size : 12.0 GiB (82%)
Title : End of Watch (2012)
Writing library : x264 core 129 r2230 1cffe9f
Encoding settings : cabac=1 / ref=4 / deblock=1:-1:-1 / analyse=0x3:0x113 / me=umh / subme=10 / psy=1 / psy_rd=1.00:0.20 / mixed_ref=1 / me_range=32 / chroma_me=1 / trellis=2 / 8x8dct=1 / cqm=0 / deadzone=21,11 / fast_pskip=0 / chroma_qp_offset=-3 / threads=12 / lookahead_threads=2 / sliced_threads=0 / nr=0 / decimate=0 / interlaced=0 / bluray_compat=0 / constrained_intra=0 / bframes=6 / b_pyramid=2 / b_adapt=2 / b_bias=0 / direct=3 / weightb=1 / open_gop=0 / weightp=2 / keyint=240 / keyint_min=24 / scenecut=40 / intra_refresh=0 / rc_lookahead=40 / rc=2pass / mbtree=0 / bitrate=16224 / ratetol=1.0 / qcomp=0.60 / qpmin=0 / qpmax=69 / qpstep=4 / cplxblur=20.0 / qblur=0.5 / vbv_maxrate=50000 / vbv_bufsize=62500 / nal_hrd=none / ip_ratio=1.40 / pb_ratio=1.30 / aq=1:1.00
Language : English
Default : Yes
Forced : No
Audio #1
ID : 2
Format : DTS
Format/Info : Digital Theater Systems
Mode : 16
Format settings, Endianness : Big
Codec ID : A_DTS
Duration : 1h 48mn
Bit rate mode : Constant
Bit rate : 1 510 Kbps
Channel(s) : 6 channels
Channel positions : Front: L C R, Side: L R, LFE
Sampling rate : 48.0 KHz
Bit depth : 16 bits
Compression mode : Lossy
Stream size : 1.14 GiB (8%)
Title : DTS 6 ch 1510 kbps DUB
Language : Russian
Default : Yes
Forced : No
Audio #2
ID : 3
Format : DTS
Format/Info : Digital Theater Systems
Mode : 16
Format settings, Endianness : Big
Codec ID : A_DTS
Duration : 1h 48mn
Bit rate mode : Constant
Bit rate : 1 510 Kbps
Channel(s) : 6 channels
Channel positions : Front: L C R, Side: L R, LFE
Sampling rate : 48.0 KHz
Bit depth : 16 bits
Compression mode : Lossy
Stream size : 1.14 GiB (8%)
Title : DTS 6 ch 1510 kbps DUB (Original)
Language : English
Default : No
Forced : No
Text
ID : 4
Format : UTF-8
Codec ID : S_TEXT/UTF8
Codec ID/Info : UTF-8 Plain Text
Title : Russian
Language : Russian
Default : No
Forced : No
Menu
00:00:00.000 : en:Chapter 1
00:03:15.041 : en:Chapter 2
00:10:19.750 : en:Chapter 3
00:16:57.333 : en:Chapter 4
00:24:11.708 : en:Chapter 5
00:31:45.125 : en:Chapter 6
00:35:55.291 : en:Chapter 7
00:42:17.625 : en:Chapter 8
00:49:03.583 : en:Chapter 9
00:55:37.791 : en:Chapter 10
00:59:27.750 : en:Chapter 11
01:04:02.625 : en:Chapter 12
01:11:00.958 : en:Chapter 13
01:17:28.875 : en:Chapter 14
01:23:02.875 : en:Chapter 15
01:30:03.041 : en:Chapter 16
01:35:19.250 : en:Chapter 17
01:39:05.833 : en:Chapter 1
-

Скриншоты

       

_________________
Other forum [Profile] [PM]
Display posts from previous:    
Reply to topic

The time now is: Today 04:39

All times are GMT + 3 Hours



You cannot post new topics in this forum
You cannot reply to topics in this forum
You cannot edit your posts in this forum
You cannot delete your posts in this forum
You cannot vote in polls in this forum
You cannot attach files in this forum
You cannot download files in this forum