Today is a free download without charge Download

Широко шагая / Walking Tall (Кевин Брэй) [2004 г., боевик, триллер, драма, комедия, криминал, биография, BDRip 720p]

Reply to topic
 
Author
Message

Delia ®

Gender:

Longevity: 9 years 7 months

Posts: 1821

Торрент-статистика

Post 28-Mar-2011 10:11

[Quote]

Широко шагаяWalking Tall Год выпуска: 2004
Страна: США
Жанр: боевик, триллер, драма, комедия, криминал, биография
Продолжительность: 01:26:18
Перевод: Профессиональный (полное дублирование)
Режиссер: Кевин Брэй
Продюссер: Ашок Амритрадж, Джим Бурк, Лукас Фостер
Сценарий: Морт Брискин, Дэвид Класс, Чаннинг Гибсон
Бюджет: $46 000 000
Премьера в мире: 2 апреля 2004
В ролях: Майкл Боуэн, Джонни Ноксвил, Дуэйн Джонсон, Нил МакДонаф, Эшли Скотт, Джон Бизли, Барбара Тарбак, Кристен Уилсон, Хлео Томас, Кевин Дюран
Описание: Cолдат особых войск армии США Крис Ваугн возвращается домой, надеясь наладить небольшой семейный бизнес, за время его отсутствия многое изменилось...Уютный, спокойный городок теперь кишит насилием, заполнен наркотиками, а террор стал там обычным делом. За всем этим стоит хозяин казино, в котором его бывшая подружка работает танцовщицей. Исполненный жажды мести и справедливости, отлично подготовленный солдат Крис становится шерифом.
Качество: BDRip 720p(Blu-Ray 1080p)
Формат: MKV
Видео кодек: H.264
Аудио кодек: AC3
Видео: English, 5971 Кбит/сек, 1280*544 (2,35:1), в 23,976 кадр/сек, AVC
Аудио: Russian, 640 Кбит/сек, 48,0 КГц, 16 бит, 6 канала(ов), AC-3
Аудио:English, 640 Кбит/сек, 48,0 КГц, 16 бит, 6 канала(ов), AC-3
Субтитры:Russian, VobSubEnglish, VobSub

Media Info:

Общее
Уникальный идентификатор : 177728514180517388177834747588836050412 (0x85B5444947CBD6AD84C6E62C5153C5EC)
Полное имя : E:\торрент\Walking Tall (2004)720p.mkv
Формат : Matroska
Размер файла : 4,37 Гбайт
Продолжительность : 1 ч. 26 м.
Общий поток : 7231 Кбит/сек
Дата кодирования : UTC 2011-03-28 06:20:04
Программа кодирования : mkvmerge v4.6.0 ('Still Crazy After All These Years') built on Mar 10 2011 02:50:32
Библиотека кодирования : libebml v1.2.0 + libmatroska v1.1.0
Видео
Идентификатор : 1
Формат : AVC
Формат/Информация : Advanced Video Codec
Профиль формата : [email protected]
Параметр CABAC формата : Да
Параметр ReFrames формата : 10 кадры
Идентификатор кодека : V_MPEG4/ISO/AVC
Продолжительность : 1 ч. 26 м.
Битрейт : 5971 Кбит/сек
Ширина : 1280 пикс.
Высота : 544 пикс.
Соотношение сторон : 2,35:1
Частота кадров : 23,976 кадр/сек
Цветовое пространство : YUV
Подвыборка цветности : 4:2:0
Битовая глубина : 8 бит
Тип развёртки : Прогрессивная
Бит/(Пиксели*Кадры) : 0.358
Размер потока : 3,51 Гбайт (80%)
Библиотека кодирования : x264 core 114 r1924 08d04a4
Настройки программы : cabac=1 / ref=10 / deblock=1:-3:-3 / analyse=0x3:0x133 / me=umh / subme=7 / psy=1 / psy_rd=1.00:0.15 / mixed_ref=1 / me_range=32 / chroma_me=1 / trellis=2 / 8x8dct=1 / cqm=0 / deadzone=21,11 / fast_pskip=0 / chroma_qp_offset=-3 / threads=6 / sliced_threads=0 / nr=0 / decimate=1 / interlaced=0 / constrained_intra=0 / bframes=4 / b_pyramid=2 / b_adapt=1 / b_bias=0 / direct=1 / weightb=0 / open_gop=0 / weightp=2 / keyint=250 / keyint_min=24 / scenecut=40 / intra_refresh=0 / rc_lookahead=40 / rc=2pass / mbtree=1 / bitrate=5971 / ratetol=1.0 / qcomp=0.80 / qpmin=10 / qpmax=51 / qpstep=4 / cplxblur=20.0 / qblur=0.5 / ip_ratio=1.40 / aq=1:1.00
Язык : English
Аудио #1
Идентификатор : 2
Формат : AC-3
Формат/Информация : Audio Coding 3
Расширение режима : CM (complete main)
Идентификатор кодека : A_AC3
Продолжительность : 1 ч. 26 м.
Вид битрейта : Постоянный
Битрейт : 640 Кбит/сек
Канал(ы) : 6 канала(ов)
Расположение каналов : Front: L C R, Side: L R, LFE
Частота : 48,0 КГц
Битовая глубина : 16 бит
Метод сжатия : С потерями
Размер потока : 396 Мбайт (9%)
Язык : Russian
Аудио #2
Идентификатор : 3
Формат : AC-3
Формат/Информация : Audio Coding 3
Расширение режима : CM (complete main)
Идентификатор кодека : A_AC3
Продолжительность : 1 ч. 26 м.
Вид битрейта : Постоянный
Битрейт : 640 Кбит/сек
Канал(ы) : 6 канала(ов)
Расположение каналов : Front: L C R, Side: L R, LFE
Частота : 48,0 КГц
Битовая глубина : 16 бит
Метод сжатия : С потерями
Размер потока : 396 Мбайт (9%)
Язык : English
Текст #1
Идентификатор : 4
Формат : VobSub
Режим смешивания : zlib
Идентификатор кодека : S_VOBSUB
Идентификатор кодека/Информация : The same subtitle format used on DVDs
Язык : Russian
Текст #2
Идентификатор : 5
Формат : VobSub
Режим смешивания : zlib
Идентификатор кодека : S_VOBSUB
Идентификатор кодека/Информация : The same subtitle format used on DVDs
Язык : English
Меню
00:00:00.000 : en:00:00:00.000
00:02:49.211 : en:00:02:49.211
00:05:50.517 : en:00:05:50.517
00:09:29.068 : en:00:09:29.068
00:15:17.875 : en:00:15:17.875
00:17:34.929 : en:00:17:34.929
00:20:18.259 : en:00:20:18.259
00:23:29.199 : en:00:23:29.199
00:24:22.294 : en:00:24:22.294
00:26:54.029 : en:00:26:54.029
00:28:27.706 : en:00:28:27.706
00:30:03.760 : en:00:30:03.760
00:32:18.270 : en:00:32:18.270
00:34:03.375 : en:00:34:03.375
00:36:32.899 : en:00:36:32.899
00:41:18.643 : en:00:41:18.643
00:46:35.626 : en:00:46:35.626
00:47:56.791 : en:00:47:56.791
00:50:22.770 : en:00:50:22.770
00:55:14.394 : en:00:55:14.394
00:59:13.008 : en:00:59:13.008
01:01:41.364 : en:01:01:41.364
01:08:13.339 : en:01:08:13.339
01:13:10.428 : en:01:13:10.428

Скриншоты

        

_________________
Человек – это канат, натянутый между животным и сверхчеловеком, – канат над пропастью.
В человеке ценно то, что он мост, а не цель. Фридрих Ницше


Last edited by Delia on 2011-08-26 00:30; edited 2 times in total
Other forum [Profile] [PM]
Display posts from previous:    
Reply to topic

The time now is: Today 10:35

All times are GMT + 3 Hours



You cannot post new topics in this forum
You cannot reply to topics in this forum
You cannot edit your posts in this forum
You cannot delete your posts in this forum
You cannot vote in polls in this forum
You cannot attach files in this forum
You cannot download files in this forum