Сегодня идет свободное скачивание без начисления Download

Дом из костей / House of Bones (2010) DVDRip

Ответить на тему
 
Автор
Сообщение

Varius ®

Пол:

Стаж: 8 лет 11 месяцев

Сообщений: 2658

Откуда: Hell

Торрент-статистика

Пост 28-Мар-2011 04:44

[Цитировать]

-Дом из костей / House of Bones-- --Год выпуска: 2010
Производство: США
Жанр: ужасы
Продолжительность: 01:30:32
Перевод: Любительский (одноголосый) [Voiz]--Режиссер: Джеффри Скотт Ландо--Актеры: Харизма Карпентер, Маркус Лайл Браун, Рик Робинсон мл., Кайл Расселл Клементс, Корин Немек, Стефани Онор, Грегори Кампо, Джейк Остин Уолкер, Адам Скотт--Описание фильма: Охотники за привидениями отправляются в заброшенный дом, который по слухам полон привидениями и может оказаться для них смертельной ловушкой.--

Премьера (мир): 16 января 2010--Качество: DVDRip
Формат: AVI
Видеокодек: XviD
Аудиокодек: АС3
Видео: 720*384, 29,970 fps, ~1833 kbps avg, 0.221 bit/pixel
Аудио: 48 kHz, АС3 5.1 ch, ~320 kbps avg - Русская

Mediainfo:

Общее
Полное имя : C:\Фильмы\House.Bones.2010.L1.DVDRip.avi
Формат : AVI
Формат/Информация : Audio Video Interleave
Размер файла : 1,37 Гбайт
Продолжительность : 1 ч. 30 м.
Общий поток : 2164 Кбит/сек
Программа кодирования : VirtualDubMod 1.5.10.2 (build 2540/release)
Библиотека кодирования : VirtualDubMod build 2540/release
Видео
Идентификатор : 0
Формат : MPEG-4 Visual
Профиль формата : Advanced [email protected]
Параметр BVOP формата : 2
Параметр QPel формата : Нет
Параметр GMC формата : Без точки перехода
Параметр матрицы формата : Default (MPEG)
Режим смешивания : Сжатый битовый поток
Идентификатор кодека : XVID
Идентификатор кодека/Подсказка : XviD
Продолжительность : 1 ч. 30 м.
Битрейт : 1833 Кбит/сек
Ширина : 720 пикс.
Высота : 384 пикс.
Соотношение сторон : 1,875
Частота кадров : 29,970 кадр/сек
Цветовое пространство : YUV
Подвыборка цветности : 4:2:0
Битовая глубина : 8 бит
Тип развёртки : Прогрессивная
Метод сжатия : С потерями
Бит/(Пиксели*Кадры) : 0.221
Размер потока : 1,16 Гбайт (85%)
Библиотека кодирования : XviD 62
Аудио
Идентификатор : 1
Формат : AC-3
Формат/Информация : Audio Coding 3
Расширение режима : CM (complete main)
Идентификатор кодека : 2000
Продолжительность : 1 ч. 30 м.
Вид битрейта : Постоянный
Битрейт : 320 Кбит/сек
Канал(ы) : 6 канала(ов)
Расположение каналов : Front: L C R, Side: L R, LFE
Частота : 48,0 КГц
Битовая глубина : 16 бит
Метод сжатия : С потерями
Размер потока : 207 Мбайт (15%)
Выравнивание : Разделение по промежуткам
Продолжительность промежутка : 33 мс. (1,00 видеокадр)
Время предзагрузки промежутка : 500 ms
--Скриншоты:
     

_________________

Создавая "Новую папку", не считайте себя Создателем - это право Вам дано Админом


Вне форума [Профиль] [ЛС]
Показать сообщения:    
Ответить на тему

Текущее время: Сегодня 14:14

Часовой пояс: GMT + 3



Вы не можете начинать темы
Вы не можете отвечать на сообщения
Вы не можете редактировать свои сообщения
Вы не можете удалять свои сообщения
Вы не можете голосовать в опросах
Вы не можете прикреплять файлы к сообщениям
Вы не можете скачивать файлы