Today is a free download without charge Download

Pixar - Коллекция короткометражных мультфильмов / Pixar - Short films collection (1984-2007) [1080p] BDRemux

Reply to topic
 
Author
Message

Omen ®

Longevity: 8 years

Posts: 181087

Торрент-статистика

Post 22-Nov-2012 11:50

[Quote]

Pixar - Коллекция короткометражных мультфильмов
Pixar - Short films collection
-
Год выпуска: 1984-2007
Жанр: Компьютерная анимация
Выпущено: Pixar, Walt Disney
Описание:
Студия Pixar, начиная с мультфильма “Жизнь жуков” (у нас “Приключения Флика”), возродила хорошо забытую старую традицию показа короткометражного мультфильма вместе с большим мультфильмом. Всем известно, что в 20-60-е годы перед сеансом кинокартины показывали короткометражный мультфильм. В 60-е подобная практика исчезла в связи с удорожанием производства мультфильмов и появлением телевидения. Однако, короткометражки появлялись. Например, перед “Спасателями” (в повторном прокате) в 1983 году показывали “Рождественскую песню Микки”, а перед “Дорогая, я уменьшил детей” на суд зрителей представили мультфильм “Проблемы с животиком” (с участием Кролика Роджера!). Сейчас Pixar идет тем же путем. Художники этой студии в короткометражках отлаживают новые технологии, учатся кинематографии, экспериментируют. Но поскольку продать такие мультфильмы почти невозможно их добавляют в качестве бонусов к полнометражным лентам. И у Вас есть уникальная возможность посмотреть большинство короткометражек их архивов Pixar.
Режиссер: Джон Лассетер, Бад Лакки, Брэд Берд
Продолжительность: 00:55:36
Перевод: Дублированный
Видеокодек: MPEG-4 AVC/H.264
Битрейт видео: ~27.4 Мбит/с
Размер кадра: 1920x1080
Качество видео: BDRemux
Битрейт аудио:
Audio 1: Русский (DTS, 6ch, 1536 Кбит/с) - Дублированный
Audio 2: Английский (LPCM, 6ch, 4352 Кбит/c ) - Оригинал
Скриншоты:
             

Список Мультфильмов:

01. Приключения Андрэ и пчелки Уэлли
02. Люксо младший
03. Звезда цирка
04. Игрушка
05. Безделушка
06. Игра Джери
07. О птичках
08. Новая машина Майка
09. Барашек
10. Джек-Джек атакует
11. Человек-оркестр
12. Метр и призрачный свет
13. Похищение

MediaInfo 09. Барашек

Код:
General
ID                               : 1
Format                           : BDAV
Format/Info                      : Blu-ray Video
File size                        : 1.10 GiB
Duration                         : 4mn 42s
Overall bit rate                 : 33.4 Mbps
Maximum Overall bit rate         : 35.5 Mbps
Video
ID                               : 4113 (0x1011)
Menu ID                          : 1 (0x1)
Format                           : AVC
Format/Info                      : Advanced Video Codec
Format profile                   : [email protected]
Format settings, CABAC           : Yes
Format settings, ReFrames        : 3 frames
Duration                         : 4mn 42s
Bit rate                         : 26.0 Mbps
Width                            : 1 920 pixels
Height                           : 1 080 pixels
Display aspect ratio             : 16:9
Frame rate                       : 23.976 fps
Standard                         : NTSC
Resolution                       : 8 bits
Colorimetry                      : 4:2:0
Scan type                        : Progressive
Bits/(Pixel*Frame)               : 0.523
Stream size                      : 876 MiB (78%)
Color primaries                  : BT.709-5, BT.1361, IEC 61966-2-4, SMPTE RP177
Transfer characteristics         : BT.709-5, BT.1361
Matrix coefficients              : BT.709-5, BT.1361, IEC 61966-2-4 709, SMPTE RP177
Audio #1
ID                               : 4352 (0x1100)
Menu ID                          : 1 (0x1)
Format                           : DTS
Format/Info                      : Digital Theater Systems
Format profile                   : ES
Duration                         : 4mn 42s
Bit rate mode                    : Constant
Bit rate                         : 1 510 Kbps
Channel(s)                       : 7 channels
Channel positions                : Front: L C R, Rear: L C R, LFE
Sampling rate                    : 48.0 KHz
Resolution                       : 24 bits
Stream size                      : 50.9 MiB (5%)
Language                         : Russian
Audio #2
ID                               : 4353 (0x1101)
Menu ID                          : 1 (0x1)
Format                           : PCM
Format settings, Endianness      : Big
Format settings, Sign            : Signed
Muxing mode                      : Blu-ray
Duration                         : 4mn 42s
Bit rate mode                    : Constant
Bit rate                         : 4 608 Kbps
Channel(s)                       : 6 channels
Channel positions                : Front: L R C, Rear: L R, LFE
Sampling rate                    : 48.0 KHz
Resolution                       : 16 bits
Stream size                      : 155 MiB (14%)
Language                         : English
Other forum [Profile] [PM]
Display posts from previous:    
Reply to topic

The time now is: Today 17:28

All times are GMT + 3 Hours



You cannot post new topics in this forum
You cannot reply to topics in this forum
You cannot edit your posts in this forum
You cannot delete your posts in this forum
You cannot vote in polls in this forum
You cannot attach files in this forum
You cannot download files in this forum