Today is a free download without charge Download

Необыкновенные приключения Карика и Вали (Александр Люткевич) [2005, мультфильм, DVDRip]

Reply to topic
 
Author
Message

Omen ®

Longevity: 7 years 11 months

Posts: 181087

Торрент-статистика

Post 22-Nov-2012 10:06

[Quote]

Необыкновенные приключения Карика и Вали Год выпуска: 2005
Страна: Россия
Жанр: мультфильм, детский
Продолжительность: 00:56:33
Субтитры: нет
Оригинальная аудиодорожка: Русский
Режиссер: Александр Люткевич
Описание: Брат и сестра, Карик и Валя, случайно уменьшили себя до размеров насекомых, съев необычные пилюли, найденные ими в квартире их соседа, профессора Енотова. Верхом на стрекозе дети переносятся в удивительный мир растений и насекомых, живущий по своим законам, неведомым человеку.
Пока ребят ищут безутешные родители и милиция, профессор Енотов понимает, куда пропали дети. Выпив пилюли и уменьшившись, он спешит на помощь Карику и Вале. Героям предстоят невероятные приключения и потрясающие открытия в мире флоры и фауны на пути домой.....- -Тип релиза: DVDRip
Контейнер: AVI
Видео: 720x544 (4:3), 25 fps, XviD ~ 1699 kbps avg, 0.174 bit/pixel
Аудио: 48 kHz, АС3, 2 ch, 192.00 kbps

MediaInfo

Общее
Полное имя : Neobyknovennye.priklucheniya.Karika.i.Vali.2005.DVDRip.avi
Формат : AVI
Формат/Информация : Audio Video Interleave
Размер файла : 770 Мбайт
Продолжительность : 56 м.
Общий поток : 1901 Кбит/сек
Программа кодирования : VirtualDubMod 1.5.10.3 | www.virtualdub-fr.org || (build 2550/release)
Библиотека кодирования : VirtualDubMod build 2550/release
Видео
Идентификатор : 0
Формат : MPEG-4 Visual
Профиль формата : Advanced [email protected]
Параметр BVOP формата : 1
Параметр QPel формата : Нет
Параметр GMC формата : Без точки перехода
Параметр матрицы формата : Выборочная
Идентификатор кодека : XVID
Идентификатор кодека/Подсказка : XviD
Продолжительность : 56 м.
Битрейт : 1699 Кбит/сек
Ширина : 720 пикселей
Высота : 544 пикселя
Соотношение сторон : 4:3
Частота кадров : 25,000 кадров/сек
Цветовое пространство : YUV
Субдискретизация насыщенности : 4:2:0
Битовая глубина : 8 бит
Тип развёртки : Прогрессивная
Метод сжатия : С потерями
Бит/(Пиксели*Кадры) : 0.174
Размер потока : 688 Мбайт (89%)
Библиотека кодирования : XviD 64
Аудио
Идентификатор : 1
Формат : AC-3
Формат/Информация : Audio Coding 3
Расширение режима : CM (complete main)
Идентификатор кодека : 2000
Продолжительность : 56 м.
Вид битрейта : Постоянный
Битрейт : 192 Кбит/сек
Каналы : 2 канала
Расположение каналов : Front: L R
Частота : 48,0 КГц
Битовая глубина : 16 бит
Метод сжатия : С потерями
Размер потока : 77,7 Мбайт (10%)
Выравнивание : Разделение по промежуткам
Продолжительность промежутка : 40 мс. (1,00 видеокадр)
Время предзагрузки промежутка : 500 мс.

Скриншоты

Other forum [Profile] [PM]
Display posts from previous:    
Reply to topic

The time now is: Today 03:59

All times are GMT + 3 Hours



You cannot post new topics in this forum
You cannot reply to topics in this forum
You cannot edit your posts in this forum
You cannot delete your posts in this forum
You cannot vote in polls in this forum
You cannot attach files in this forum
You cannot download files in this forum