Today is a free download without charge Download

Приключения домовёнка Кузи (Дом для Кузьки, Приключения домовёнка, Сказка для Наташи, Возвращение домовёнка) (Аида Зябликова) [1984-1987 г.г., Мультфильм, DVB]

Reply to topic
 
Author
Message

Omen ®

Longevity: 7 years 11 months

Posts: 181087

Торрент-статистика

Post 22-Nov-2012 10:05

[Quote]

- Приключения домовёнка Кузи1. Дом для Кузьки
2. Приключения домовёнка
3. Сказка для Наташи
4. Возвращение домовёнка

Страна: СССР
Жанр: Мультфильм
Продолжительность: 0:53:42 (0:17:50 + 0:17:05 + 0:09:52 + 0:09:35)
Год выпуска: 1984, 1985, 1986, 1987
Выпущено: «ЭКРАН»
Режиссёр: Аида Зябликова
Русские субтитры: нетОписание:1. «Дом для Кузьки» (1984 г.)
«Дом для Кузьки» — первый мультфильм по очерёдности появления и второй мультфильм по сюжету из серии о домовёнке Кузе (по мотивам сказки Т. Александровой "Кузька в новой квартире").
В этой серии девочка Наташа знакомится с домовёнком Кузькой, которому пришлось переселиться к ней в квартиру. Старый дом Кузьмы снесли, и ему с другом Нафаней пришлось искать новое жилище. Домовой учит Наташу жить правильно, по-домовитому. А Наташа помогает Кузьке приспосабливаться к современной жизни. Наташа и домовёнок становятся настоящими друзьями.
В конце мультфильма звучит песня на стихи Валентина Берестова.
2. «Приключения домовёнка» (1985 г.)
В этой серии мы узнаём, как жил домовёнок до того, как попал к Наташе. Как Кузьму похитила Баба-Яга, надеясь на счастливую жизнь с хозяйственным домовым, как он попал в пень к Лешим, а потом стал "первым гнездовым"...
3. «Сказка для Наташи» (1986 г.)
Домовёнок сердится на Наташу, считая её бесхозяйственной, а в это время Баба-Яга вынашивает план похищения Кузьки. Она приходит домой к девочке под видом "Кузенькиной бабушки" и хитростью выкрадывает Кузьму.
4. «Возвращение домовёнка» (1987 г.)
Ворона решает спасти домовёнка и отправляется за ним в лес к Бабе-Яге. А та решает накормить Кузьку отворотным зельем, чтобы он на веки вечные остался с ней. Кузьма совершает побег, в результате которого жизнь всех главных героев изменяется к лучшему: ворона понимает, что счастье – это "когда у тебя все дома", Наташа снова обретает любимого друга, а Баба-Яга встречает нового домового, ещё более талантливого, чем Кузьма...

Цитаты


— Ой, бяда-бяда! Огорчение!
— Спасибо этому дому, пойду к другому.
— Нафа-аня! Волшебный сундучок украли! Со сказками!
— Заходи, гостем будешь.
— Это я не ем, я не козёл.
— Я — птица вольная! Куда хочу — туда лечу!
— Счастье — это когда все дома!
— Мусор вынесла? Умница, дочка!
— Ой, прямо дяденьке на шляпу… ага.
— Ну и что! Отряхнулся — и пошёл себе дальше!
— Кузенька! Вернись, яхонтовый мой!
— Ой, дедушка, птицы летят!..
— Это хорошо, это порядок.
— Смотри, и домовёнок летит!..
— А вот это непорядок.
— Говорят, вам счастье привалило? (ворона)
— Бессовестно врут! (кот)
— Бабе Яге счастье привалило!
— Завела дармоеда!
— Хочется чего-то, сам не знаю чего…
— Ремняу-мяу!
— Я чего сказал? Хочу ватрушек! А ты чего напекла?! Вот ешь теперь сама!
— Хлеб чёрный… И фунта не будет…
— Эй, ворона, весна скоро?
— Опомнился! Май на носу!
— Кем ты был? Последний домовой, а стал первый гнездовой!
— Ел недосыта, спал без просыпа… Недосыпал, в общем, я!
— Я не жадный, я домовитый.
— Дедушка, чего он дразнится?
— Я не могу быть понарошку, я девочка!
— А я скажу: «Не пойдёшь домой — поймаю и съем!»
— А он скажет: «Подавишься».
— Хочется чего-то, сам не знаю чего. Половички, что ли, снежком почистить?

Режиссёр и команда

Режиссёр Аида Зябликова
сценаристы: Валентин Берестов (1), Марина Вишневецкая (2, 3, 4)
художник-постановщик Геннадий Смолянов
xудожники: 2) О. Усачева; 3) А. Крюков, Э. Прохиницкая, Григорий Большаков
аниматоры: 1) Ольга Анашкина, Владимир Кадухин, Алла Соловьева; 2) Людмила Африна, Ольга Анашкина; 3) Владимир Кадухин, Алла Соловьева; 4) Владимир Кадухин, Алла Гришко
куклы и декорации:
1) Виктор Слетков, Анатолий Гнединский, Александра Мулюкина, Валерий Петров, Маргарита Богатская, Татьяна Моргунова, Юрий Одинцов, Елена Покровская;
2) Анатолий Кузнецов, Юрий Одинцов, Валерий Петров, Александра Мулюкина, Маргарита Богатская, Виктор Слетков, Анатолий Гнединский, Елена Покровская, Татьяна Моргунова;
3) Е. Дымова, Александра Мулюкина, Нина Пантелеева, Анатолий Кузнецов, Юрий Одинцов, Елена Покровская, Геннадий Богачев, Виктор Слетков
операторы: Леонард Кольвинковский (1, 2, 3), Константин Инешин (2, 4)
директор Е. Бобровская
композиторы: Сергей Томин (1), Михаил Меерович (2, 3, 4)
звукорежиссёр Сергей Кель (2)
редактор Алиса Феодориди
монтажёр Татьяна Моргунова
роли озвучивали: Георгий Вицин (Кузька), Татьяна Пельтцер (Баба Яга), Григорий Большаков, Анатолий Кузнецов, Светлана Травкина, Феликс Иванов.
Качество: DVB
Формат: ts (Transport Stream)
Видео: 720x576, 25 fps, H264 - MPEG-4 AVC (part 10), 2426 kbps
Аудио: 48000 Гц, MPEG Audio layer 1/2/3 (mpga), Stereo, 192 kbps
Субтитры: отсутствуют

Подробные технические данные

1

ОбщееИдентификатор : 1 (0x1)Полное имя : D:\Prikl'ucheniya_domovenka_Kuzi_(1-4)\1._Dom_dl'a_Kuz'ki.tsФормат : MPEG-TSРазмер файла : 352 МбайтПродолжительность : 17 м.Общий поток : 2756 Кбит/сек
ВидеоИдентификатор : 4113 (0x1011)Идентификатор меню : 1 (0x1)Формат : AVCФормат/Информация : Advanced Video CodecПрофиль формата : [email protected]Параметр CABAC формата : ДаПараметр ReFrames формата : 4 кадраПараметр GOP формата : M=4, N=24Идентификатор кодека : 27Продолжительность : 17 м.Вид битрейта : ПеременныйБитрейт : 2426 Кбит/секМаксимальный битрейт : 40,0 Мбит/секШирина : 720 пикселейВысота : 576 пикселейСоотношение сторон : 4:3Частота кадров : 25,000 кадров/секСтандарт вещания : ComponentЦветовое пространство : YUVСубдискретизация насыщенности : 4:2:0Битовая глубина : 8 битТип развёртки : ЧересстрочнаяПорядок развёртки : Верхнее поле первоеБит/(Пиксели*Кадры) : 0.234Размер потока : 310 Мбайт (88%)Основные цвета : BT.470-6 System B, BT.470-6 System G, BT.601-6 625, BT.1358 625, BT.1700 625 PAL, BT.1700 625 SECAMХарактеристики трансфера : BT.470-6 System B, BT.470-6 System GКоэффициенты матрицы : BT.470-6 System B, BT.470-6 System G, BT.601-6 625, BT.1358 625, BT.1700 625 PAL, BT.1700 625 SECAM, IEC 61966-2-4 601
АудиоИдентификатор : 4352 (0x1100)Идентификатор меню : 1 (0x1)Формат : MPEG AudioВерсия формата : Version 1Профиль формата : Layer 2Идентификатор кодека : 3Продолжительность : 17 м.Вид битрейта : ПостоянныйБитрейт : 192 Кбит/секКаналы : 2 каналаЧастота : 48,0 КГцМетод сжатия : С потерямиРазмер потока : 24,5 Мбайт (7%)Язык : Russian

2

ОбщееИдентификатор : 1 (0x1)Полное имя : D:\Prikl'ucheniya_domovenka_Kuzi_(1-4)\2._Prikl'ucheniya_domovenka.tsФормат : MPEG-TSРазмер файла : 337 МбайтПродолжительность : 17 м.Общий поток : 2758 Кбит/сек
ВидеоИдентификатор : 4113 (0x1011)Идентификатор меню : 1 (0x1)Формат : AVCФормат/Информация : Advanced Video CodecПрофиль формата : [email protected]Параметр CABAC формата : ДаПараметр ReFrames формата : 4 кадраПараметр GOP формата : M=4, N=24Идентификатор кодека : 27Продолжительность : 17 м.Вид битрейта : ПеременныйБитрейт : 2427 Кбит/секМаксимальный битрейт : 40,0 Мбит/секШирина : 720 пикселейВысота : 576 пикселейСоотношение сторон : 4:3Частота кадров : 25,000 кадров/секСтандарт вещания : ComponentЦветовое пространство : YUVСубдискретизация насыщенности : 4:2:0Битовая глубина : 8 битТип развёртки : ЧересстрочнаяПорядок развёртки : Верхнее поле первоеБит/(Пиксели*Кадры) : 0.234Размер потока : 297 Мбайт (88%)Основные цвета : BT.470-6 System B, BT.470-6 System G, BT.601-6 625, BT.1358 625, BT.1700 625 PAL, BT.1700 625 SECAMХарактеристики трансфера : BT.470-6 System B, BT.470-6 System GКоэффициенты матрицы : BT.470-6 System B, BT.470-6 System G, BT.601-6 625, BT.1358 625, BT.1700 625 PAL, BT.1700 625 SECAM, IEC 61966-2-4 601
АудиоИдентификатор : 4352 (0x1100)Идентификатор меню : 1 (0x1)Формат : MPEG AudioВерсия формата : Version 1Профиль формата : Layer 2Идентификатор кодека : 3Продолжительность : 17 м.Вид битрейта : ПостоянныйБитрейт : 192 Кбит/секКаналы : 2 каналаЧастота : 48,0 КГцМетод сжатия : С потерямиЗадержка видео : -40 мс.Размер потока : 23,5 Мбайт (7%)Язык : Russian

3

ОбщееИдентификатор : 1 (0x1)Полное имя : D:\Prikl'ucheniya_domovenka_Kuzi_(1-4)\3._Skazka_dl'a_Natashi.tsФормат : MPEG-TSРазмер файла : 195 МбайтПродолжительность : 9 м. 52 с.Общий поток : 2756 Кбит/сек
ВидеоИдентификатор : 4113 (0x1011)Идентификатор меню : 1 (0x1)Формат : AVCФормат/Информация : Advanced Video CodecПрофиль формата : [email protected]Параметр CABAC формата : ДаПараметр ReFrames формата : 4 кадраПараметр GOP формата : M=4, N=24Идентификатор кодека : 27Продолжительность : 9 м. 52 с.Вид битрейта : ПеременныйБитрейт : 2426 Кбит/секМаксимальный битрейт : 40,0 Мбит/секШирина : 720 пикселейВысота : 576 пикселейСоотношение сторон : 4:3Частота кадров : 25,000 кадров/секСтандарт вещания : ComponentЦветовое пространство : YUVСубдискретизация насыщенности : 4:2:0Битовая глубина : 8 битТип развёртки : ЧересстрочнаяПорядок развёртки : Верхнее поле первоеБит/(Пиксели*Кадры) : 0.234Размер потока : 171 Мбайт (88%)Основные цвета : BT.470-6 System B, BT.470-6 System G, BT.601-6 625, BT.1358 625, BT.1700 625 PAL, BT.1700 625 SECAMХарактеристики трансфера : BT.470-6 System B, BT.470-6 System GКоэффициенты матрицы : BT.470-6 System B, BT.470-6 System G, BT.601-6 625, BT.1358 625, BT.1700 625 PAL, BT.1700 625 SECAM, IEC 61966-2-4 601
АудиоИдентификатор : 4352 (0x1100)Идентификатор меню : 1 (0x1)Формат : MPEG AudioВерсия формата : Version 1Профиль формата : Layer 2Идентификатор кодека : 3Продолжительность : 9 м. 52 с.Вид битрейта : ПостоянныйБитрейт : 192 Кбит/секКаналы : 2 каналаЧастота : 48,0 КГцМетод сжатия : С потерямиРазмер потока : 13,6 Мбайт (7%)Язык : Russian

4

ОбщееИдентификатор : 1 (0x1)Полное имя : D:\Prikl'ucheniya_domovenka_Kuzi_(1-4)\4._Vozvrashchenie_domovenka.tsФормат : MPEG-TSРазмер файла : 189 МбайтПродолжительность : 9 м. 35 с.Общий поток : 2756 Кбит/сек
ВидеоИдентификатор : 4113 (0x1011)Идентификатор меню : 1 (0x1)Формат : AVCФормат/Информация : Advanced Video CodecПрофиль формата : [email protected]Параметр CABAC формата : ДаПараметр ReFrames формата : 4 кадраПараметр GOP формата : M=4, N=24Идентификатор кодека : 27Продолжительность : 9 м. 35 с.Вид битрейта : ПеременныйБитрейт : 2426 Кбит/секМаксимальный битрейт : 40,0 Мбит/секШирина : 720 пикселейВысота : 576 пикселейСоотношение сторон : 4:3Частота кадров : 25,000 кадров/секСтандарт вещания : ComponentЦветовое пространство : YUVСубдискретизация насыщенности : 4:2:0Битовая глубина : 8 битТип развёртки : ЧересстрочнаяПорядок развёртки : Верхнее поле первоеБит/(Пиксели*Кадры) : 0.234Размер потока : 166 Мбайт (88%)Основные цвета : BT.470-6 System B, BT.470-6 System G, BT.601-6 625, BT.1358 625, BT.1700 625 PAL, BT.1700 625 SECAMХарактеристики трансфера : BT.470-6 System B, BT.470-6 System GКоэффициенты матрицы : BT.470-6 System B, BT.470-6 System G, BT.601-6 625, BT.1358 625, BT.1700 625 PAL, BT.1700 625 SECAM, IEC 61966-2-4 601
АудиоИдентификатор : 4352 (0x1100)Идентификатор меню : 1 (0x1)Формат : MPEG AudioВерсия формата : Version 1Профиль формата : Layer 2Идентификатор кодека : 3Продолжительность : 9 м. 35 с.Вид битрейта : ПостоянныйБитрейт : 192 Кбит/секКаналы : 2 каналаЧастота : 48,0 КГцМетод сжатия : С потерямиРазмер потока : 13,2 Мбайт (7%)Язык : Russian

Скриншоты

1. "Дом для Кузьки"

2. "Приключения домовёнка"

3. "Сказка для Наташи"

4. "Возвращение домовёнка"

Other forum [Profile] [PM]
Similar theme
Forum Topic Author Torrent Replies Last Post
./templates/default/images/folder_dl.gif Фильмы 2001-2010 Невероятная жизнь Уолтера Митти / The Secret Life of Walter Mitty (Бен Стиллер / Ben Stiller, 2013, Приключения, мелодрама, драма, комедия, фэнтези) WEB-DL [H.264/1080p-LQ] Omen
1 | 0

0 | 929

36

2014-03-26 22:37
Omen Latest
./templates/default/images/folder_dl.gif Обучающее видео Учебный центр 1C | Использование прикладного решения 1С Розница 8.2 Редакция 2 (2015) PCRec Varius
1 | 0

0 | 2526

44

2015-07-16 05:16
Varius Latest
./templates/default/images/folder_dl.gif Зарубежное кино Изгой-один: Звёздные войны. Истории / Rogue One: A Star Wars Story (Гарет Эдвардс) [2016 г., фантастика, боевик, приключения, BDRip 1080p] DUB | Чистый звук Theseus
1 | 0

0 | 7778

8

2017-03-22 11:05
Theseus Latest
./templates/default/images/folder_dl.gif Зарубежные сериалы Игра престолов / Game of Thrones / Сезон: 8 / Серии: 1-6 из 6 (Алан Тейлор / Alan Taylor) [2019, фэнтези, боевик, драма, мелодрама, приключения, WEB-DL 1080p] MVO (Amedia / Новамедиа) + Original + Sub (Rus, Eng) ¶ }{@R0N
1 | 0

0 | 1880

0

2019-05-20 12:02
}{@R0N Latest
./templates/default/images/folder_dl.gif Иностранные мультфильмы Angry Birds 2 в кино / The Angry Birds Movie 2 (Туроп Ван Орман) [2019, мультфильм, комедия, приключения, семейный, HDRip] [DUB] [iTunes] Орлов Владимир
1 | 0

0 | 379

1

2019-10-30 22:35
Орлов Владимир Latest
./templates/default/images/folder_dl.gif Фильмы 2011-2020 Дикая Лига (Андрей Богатырёв, Арт Камачо) [2019 г., приключения, WEB-DLRip] kilmister777
1 | 0

0 | 952

1

2019-11-07 09:44
kilmister777 Latest
./templates/default/images/folder_dl.gif Фильмы 2011-2020 Фиксики против кработов (Василий Бедошвили, Олег Ужинов, Иван Пшонкин) [2019 г., приключения, музыка, мультфильм, WEB-DLRip] kilmister777
2 | 0

0 | 678

3

2020-02-05 13:57
kilmister777 Latest
./templates/default/images/folder_dl.gif Фильмы 2011-2020 Подкидыш (Сергей Васильев) [2019 г., комедия, семейный, приключения, WEB-DLRip] kilmister777
1 | 0

0 | 769

3

2020-06-07 11:56
kilmister777 Latest
./templates/default/images/folder_dl.gif Зарубежное кино (HD Video) Зов предков / The Call of the Wild (Крис Сандерс) [2020, Драма, приключения, семейный, BDRip 720p) Dub (iTunes) + Original + Sub (Rus/Eng) Kon912
1 | 0

0 | 119

0

2020-06-17 22:35
Kon912 Latest
./templates/default/images/folder_dl.gif Отечественные cериалы Игра на выживание (Карен Оганесян)[1-12 серия из 12] [2020 г., приключения, триллер, драма, SATRip] kilmister777
1 | 0

0 | 804

2

2020-09-18 07:45
kilmister777 Latest
Display posts from previous:    
Reply to topic

The time now is: Today 09:08

All times are GMT + 3 Hours



You cannot post new topics in this forum
You cannot reply to topics in this forum
You cannot edit your posts in this forum
You cannot delete your posts in this forum
You cannot vote in polls in this forum
You cannot attach files in this forum
You cannot download files in this forum